<?xml version="1.0" standalone="no"?>
<!DOCTYPE svg PUBLIC "-//W3C//DTD SVG 1.1//EN" "http://www.w3.org/Graphics/SVG/1.1/DTD/svg11.dtd" >
<svg xmlns="http://www.w3.org/2000/svg" xmlns:xlink="http://www.w3.org/1999/xlink" version="1.1">
<metadata>
Created by FontForge 20150905 at Sun Mar 20 04:14:23 2016
 By sid
Copyright (c) 2016, sid
</metadata>
<defs>
<font id="technology-icons" horiz-adv-x="512" >
  <font-face 
    font-family="technology-icons"
    font-weight="400"
    font-stretch="normal"
    units-per-em="512"
    panose-1="2 0 5 3 0 0 0 0 0 0"
    ascent="448"
    descent="-64"
    bbox="-1.29032 -64 705 449.547"
    underline-thickness="25"
    underline-position="-76"
    unicode-range="U+F101-F173"
  />
<missing-glyph horiz-adv-x="187" 
d="M17 0v341h136v-341h-136zM34 17h102v307h-102v-307z" />
    <glyph glyph-name=".notdef" horiz-adv-x="187" 
d="M17 0v341h136v-341h-136zM34 17h102v307h-102v-307z" />
    <glyph glyph-name=".null" horiz-adv-x="0" 
 />
    <glyph glyph-name="nonmarkingreturn" horiz-adv-x="170" 
 />
    <glyph glyph-name="uniF101" unicode="&#xf101;" 
d="M0 448h512v-512h-512v512zM235 86h48l-79 244h-57l-78 -244h46l21 69h77zM449 161q2 8 2 19q0 34 -19 60t-58 26q-41 0 -63.5 -28t-22.5 -67q0 -41 24.5 -65t66.5 -24q35 0 62 11l-7 31q-21 -8 -49 -8q-23 0 -38 11t-16 34h118zM174 294q12 -42 13 -45l19 -60h-63l19 60
q2 7 5.5 22.5t5.5 22.5h1zM372 236q36 0 36 -43h-77q2 17 12 30t29 13z" />
    <glyph glyph-name="uniF102" unicode="&#xf102;" 
d="M234 265q0 -35 -48 -35h-23v67q10 2 26 2q45 0 45 -34zM185 198q56 0 56 -40q0 -41 -54 -41q-18 0 -24 1v80h22zM0 448h512v-512h-512v512zM265 106q23 20 23 50q0 48 -49 61v1q40 15 40 53q0 30 -25 45q-23 16 -70 16q-42 0 -65 -5v-241q33 -3 55 -3q65 0 91 23z
M419 223v42q-4 1 -11 1q-34 0 -48 -38h-2l-1 34h-39q2 -32 2 -57v-119h44v91q0 6 2 14q7 33 40 33q9 0 13 -1z" />
    <glyph glyph-name="uniF103" unicode="&#xf103;" 
d="M0 448h512v-512h-512v512zM218 113q29 31 29 84q0 51 -29 78q-26 24 -74 24q-34 0 -54 -4v-208q11 -2 45 -2q56 0 83 28zM404 87l42 152h-33l-15 -67q-6 -29 -9 -51q-1 7 -11 51l-16 67h-28l-17 -69q-5 -18 -10 -49h-1q-2 17 -8 49l-14 69h-35l40 -152h31l17 62
q6 21 10 49q5 -27 10 -49l16 -62h31zM147 269q64 0 64 -73q0 -81 -69 -81q-13 0 -18 1v151q10 2 23 2z" />
    <glyph glyph-name="uniF104" unicode="&#xf104;" 
d="M0 448h512v-512h-512v512zM207 266v31h-106v-206h34v88h67v31h-67v56h72zM369 91l42 149h-33l-15 -66q-6 -25 -9 -50q-3 16 -11 50l-17 66h-27l-17 -68q-7 -25 -11 -48h-1q-2 19 -8 49l-14 67h-34l39 -149h31l17 61q6 22 10 47h1q4 -21 10 -47l16 -61h31z" />
    <glyph glyph-name="uniF105" unicode="&#xf105;" 
d="M0 448h512v-512h-512v512zM293 283v36h-141v-244h45v104h90v36h-90v68h96zM368 75v257h-45v-257h45z" />
    <glyph glyph-name="uniF106" unicode="&#xf106;" 
d="M210 267q1 -4 5 -19.5t7 -24.5l19 -60h-62l19 60q2 7 5.5 22t5.5 22h1zM0 448h512v-512h-512v512zM270 62h47l-78 240h-56l-77 -240h45l21 68h76zM384 62v174h-44v-174h44zM362 261q11 0 18 6.5t7 16.5q0 11 -7 17.5t-18 6.5t-18 -6.5t-7 -17.5q0 -10 7 -16.5t18 -6.5z
" />
    <glyph glyph-name="uniF107" unicode="&#xf107;" 
d="M290 218q28 0 36 -30q1 -3 1 -11v-24q0 -4 -2 -12q-7 -30 -36 -30q-19 0 -30 14.5t-11 37.5q0 24 11 39.5t31 15.5zM0 448h512v-512h-512v512zM184 81v228h-42v-228h42zM332 81h38q-2 22 -2 47v193h-41v-93h-1q-13 22 -46 22q-31 0 -52.5 -24t-21.5 -64q0 -38 20 -61
t50 -23q38 0 54 29h1z" />
    <glyph glyph-name="uniF108" unicode="&#xf108;" 
d="M0 448h512v-512h-512v512zM281 86v37h-100v207h-45v-244h145zM406 223v42q-4 1 -11 1q-34 0 -48 -38h-1l-2 34h-39q2 -32 2 -57v-119h44v91q0 6 2 14q7 33 40 33q9 0 13 -1z" />
    <glyph glyph-name="uniF109" unicode="&#xf109;" 
d="M184 272q44 0 44 -37q0 -40 -48 -40q-14 0 -19 1v75q4 1 23 1zM0 448h512v-512h-512v512zM249 187q19 19 19 50q0 30 -21 48t-65 18q-42 0 -61 -4v-217h40v83q10 -2 19 -2q45 0 69 24zM327 79q31 0 47.5 13.5t16.5 35.5q0 35 -42 49q-28 10 -28 22q0 16 22 16q18 0 34 -9
l8 29q-16 9 -42 9q-27 0 -43.5 -14t-16.5 -36q0 -31 43 -46q26 -9 26 -23q0 -18 -25 -18q-23 0 -41 12l-8 -29q19 -11 49 -11z" />
    <glyph glyph-name="uniF10A" unicode="&#xf10a;" horiz-adv-x="469" 
d="M235 427q97 0 165.5 -68.5t68.5 -166.5t-68.5 -166.5t-165.5 -68.5t-166 68.5t-69 166.5t69 166.5t166 68.5zM340 139l-8.5 8.5l-7 7t-3.5 2.5q0 1 16 19q27 30 27 61q0 28 -19 50q-26 29 -72 21q-15 -3 -27 -12.5t-52 -51.5q-57 -59 -65 -59q-19 0 9 31q7 9 18 20l38 39
l-21 22q-19 21 -23 21q-3 0 -42.5 -42t-43.5 -50q-8 -16 -4 -40.5t17 -39.5q14 -15 40 -20.5t47 3.5q10 3 67 62q59 60 69 56q2 -1 4 -6t-6.5 -15.5t-43.5 -47.5l-27 -28l42 -41l41 -42l24 24q23 23 23 27q0 6 -17 21z" />
    <glyph glyph-name="uniF10B" unicode="&#xf10b;" horiz-adv-x="399" 
d="M299 328q100 -64 100 -178q0 -85 -58 -139t-140 -54q-45 0 -89 21h-1q-1 0 -1 0.5t-1 0.5h-1v1h-1t-1 0.5t-1 0.5t-1 0.5t-1 0.5h-1v1h-1q-2 1 -5.5 3.5t-5.5 3.5q-1 0 -3 2t-3 2t-2 1l-2 2t-3.5 2.5t-3.5 2.5l-3 3q-1 1 -3.5 3t-3.5 3l-3 3l-6 6l-3 3q-1 1 -3 3.5
t-3 3.5l-2 2q-1 2 -3 4t-3 4q-1 0 -1 1t-1 2t-2.5 4t-2.5 4l-2 2q-1 1 -2.5 5t-2.5 5l-1 1q-1 2 -2.5 5.5t-2.5 5.5l-1 1q-16 38 -16 78q0 72 46 126q22 26 52 44q3 2 7 4l17 8.5t19.5 11t18.5 13.5l2 2q12 10 17 27q2 7 4 23q34 -40 49 -50q3 -3 7 -5q9 -5 29 -14t30 -15z
M73 247q52 26 83 57q25 25 25 38q0 2 -2 4t-2 3q1 2 4 4q10 7 10 20q0 12 -5 28v1l-1 2v1v-4q-4 -27 -24 -43q-3 -3 -7 -5q-17 -12 -37 -22l-8 -4q-26 -14 -43 -30q-4 -3 -10 -11h-1q-1 0 -1 -1v-1l-5 -5q-8 -8 -14 -20q-6 -11 -3 -17q8 -12 41 5zM301 -2q2 2 2 8q0 5 -6 1
q-19 -15 -57 -15q-33 0 -50 13q-1 1 -3 1q-4 0 -7 -3q-4 -5 0 -9q20 -19 75 -14q31 3 46 18zM224 38q-7 -6 -3 -11q3 -4 13 4q14 12 28 12q15 0 21 -12q3 -7 7 -4q6 3 3 8q-7 13 -10 16q-5 4 -20 4q-13 0 -18 -2t-21 -15zM341 35q14 -1 29 20q15 20 15 53q0 37 -28 37
q-10 0 -42 -22t-43 -22q-10 0 -47 25.5t-66 25.5q-30 0 -51.5 -20.5t-21.5 -46.5q0 -29 20 -43q13 -9 43 -9q24 0 69 26.5t55 26.5q11 -1 36 -26t32 -25z" />
    <glyph glyph-name="uniF10C" unicode="&#xf10c;" horiz-adv-x="489" 
d="M88 190l-9 9q-46 46 -27 108q-22 5 -36.5 23t-14.5 41q0 27 19 46t46 19q25 0 43 -16t22 -39q59 14 101 -28l4 -4l-48 -48l-4 3q-12 12 -28.5 12t-28.5 -12t-12 -28.5t12 -28.5l9 -9l49 -48l51 -51l-48 -49l-52 51l-48 49v0zM142 244l51 51l49 48l9 10q45 45 107 27
q3 24 21.5 40t43.5 16q27 0 46.5 -19t19.5 -46q0 -25 -16.5 -43.5t-40.5 -21.5q18 -61 -28 -107l-3 -4l-49 49l4 4q12 12 12 28t-12 28t-28.5 12t-28.5 -12l-9 -9l-48 -48l-52 -52l-48 49v0zM360 0q-27 -9 -57.5 -1.5t-51.5 28.5l-4 4l49 48l3 -4q12 -12 28.5 -12t28.5 12
t12 28.5t-12 28.5l-9 9l-49 49l-51 51l49 48l51 -51l48 -48l9 -10q44 -44 29 -102q24 -3 40 -21.5t16 -43.5q0 -27 -19 -46t-46 -19q-24 0 -41.5 14.5t-22.5 37.5v0zM341 136l-51 -51l-48 -49l-10 -9q-44 -44 -103 -29q-5 -22 -23 -36t-41 -14q-27 0 -46 19t-19 46
q0 23 14 41t36 23q-15 59 29 103l3 4l49 -48l-4 -4q-12 -12 -12 -28.5t12 -28.5t28.5 -12t28.5 12l9 10l49 48l51 51l48 -48v0z" />
    <glyph glyph-name="uniF10D" unicode="&#xf10d;" horiz-adv-x="425" 
d="M240 292l74 -45v-244l-102 -62l-101 62v244l73 45v-285l28 -17l28 17v285zM212 443l213 -129v-244l-55 -32v243l-1 1l-157 95l-157 -95v-245l-55 33v244zM425 314l-55 -33l-158 96l-157 -95l-55 32l212 129zM240 292l74 -45l-74 -45v90zM111 247l73 45v-89z" />
    <glyph glyph-name="uniF10E" unicode="&#xf10e;" horiz-adv-x="358" 
d="M357 201q-5 83 -76 154t-119 72q-28 1 -65 -35.5t-66 -98.5t-31 -123q-3 -81 49.5 -143t97.5 -73q0 27 3.5 153.5t3.5 139.5q5 130 13 132q4 1 7.5 -24t2.5 -45v-43q6 6 14.5 14t10.5 10q17 17 19 10q0 -3 -4 -10q-4 -9 -40 -57v-142q36 43 61 66q26 25 26 17
q0 -4 -8 -21q-4 -8 -78 -102v-96q65 13 124.5 87t54.5 158v0z" />
    <glyph glyph-name="uniF10F" unicode="&#xf10f;" horiz-adv-x="470" 
d="M33 192q0 41 18 82l96 -263q-51 25 -82.5 73.5t-31.5 107.5zM371 202q0 -15 -16 -65l-20 -67l-72 216l23 2q5 0 6.5 4.5t-1 8.5t-7.5 4q-32 -3 -53 -3l-53 3q-3 0 -5.5 -1.5t-3 -4t-0.5 -5t2 -4.5t5 -2q10 -1 21 -2l32 -86l-44 -132l-74 218l23 2q5 0 7 4.5t-0.5 8.5
t-7.5 4q-33 -3 -54 -3q-2 0 -5.5 0.5t-6.5 0.5q27 42 71.5 66t96.5 24q79 0 136 -52h-3q-15 0 -24.5 -10.5t-9.5 -25.5q0 -13 20 -47q17 -28 17 -56zM238 174l62 -169q0 -1 2 -3q-33 -11 -67 -11q-28 0 -57 8zM412 289q24 -44 24 -97q0 -55 -27 -101t-73 -73l62 178
q15 40 15 72q0 15 -1 21zM235 427q97 0 166 -69t69 -166t-69 -166t-166 -69t-166 69t-69 166t69 166t166 69zM235 -32q93 0 158.5 65.5t65.5 158.5t-65.5 158.5t-158.5 65.5t-158.5 -65.5t-65.5 -158.5t65.5 -158.5t158.5 -65.5z" />
    <glyph glyph-name="uniF110" unicode="&#xf110;" horiz-adv-x="495" 
d="M364 -63l131 52l-1 407l-130 52l-189 -185l-113 86l-62 -31v-251l62 -32l112 86l190 -184v0zM462 373v-362l-90 -36l-195 189l-119 -90l-25 13v210l26 13l118 -90l195 189zM71 143l55 49l-55 50v-99zM247 192l110 -82v165z" />
    <glyph glyph-name="uniF111" unicode="&#xf111;" horiz-adv-x="507" 
d="M260 172q26 0 37 -10q13 -11 13 -31t-13 -31q-11 -10 -37 -10h-48v82h48zM287 236q-9 -8 -30 -8h-45v67h45q19 0 30 -9q10 -9 10 -25t-10 -25zM425 448q34 0 58 -24t24 -58v-347q0 -34 -24 -58t-58 -24h-343q-34 0 -58 24t-24 58v347q0 34 24 58t58 24h343zM361 56
q31 22 31 69q0 29 -15 50t-40 28q20 7 31 24t11 40q0 43 -30 63q-31 20 -96 20h-123v-316h136q64 0 95 22z" />
    <glyph glyph-name="uniF112" unicode="&#xf112;" horiz-adv-x="510" 
d="M0 192q0 106 74.5 180.5t180.5 74.5t180.5 -74.5t74.5 -180.5t-74.5 -180.5t-180.5 -74.5t-180.5 74.5t-74.5 180.5zM357 199l34 136l-136 -34l27 -28l61 14l-14 -60zM310 10l34 137l-28 28l-25 -97l-55 55l16 63l-64 -15l-55 55l97 24l-27 28l-137 -34z" />
    <glyph glyph-name="uniF113" unicode="&#xf113;" horiz-adv-x="491" 
d="M389 246q27 -9 27 -32q0 -14 -12 -23q-12 -10 -32 -10q-16 0 -38 11q0 6 3 12q4 8 6 9q18 -8 29 -8q5 0 9 2q3 1 3 5q0 7 -10 10l-11 2q-26 9 -26 30q0 15 11 24q13 11 29 11q7 0 19 -2q6 -2 18 -9q0 -7 -2 -12q-3 -6 -7 -10q-17 7 -28 7q-3 0 -7 -2q-2 -2 -2 -4
q0 -4 7 -7zM299 246q26 -9 26 -32q0 -15 -10 -23q-12 -10 -32 -10q-17 0 -39 11q0 6 3 12t7 9q18 -8 29 -8q4 0 8 2q3 1 3 5q0 7 -9 10l-11 4q-25 9 -25 30q0 16 10 25q12 10 29 10q7 0 19 -2q9 -3 18 -8q0 -8 -2 -13q-4 -8 -6 -10q-19 8 -29 8l-6 -3q-3 -3 -3 -4q0 -4 8 -7
zM234 245q0 -10 -4 -22h-53q0 -9 4 -13q5 -5 14 -5q8 0 12 1q13 3 15 4q6 -6 8 -18q-19 -12 -39 -12q-13 0 -21 5q-12 7 -14 11q-7 9 -8 17q-2 12 -2 22q0 12 3 21q4 12 9 17q4 5 14 11t20 6q4 0 17 -5q10 -5 13 -9q4 -4 8 -14t4 -17zM178 243v-1h27v2q0 10 -3 15
q-4 6 -10 6q-7 0 -10 -5q-4 -6 -4 -17zM488 255l3 -1v-21l-4 -2q-5 -1 -8 -6q-6 -6 -6 -18v-35q0 -21 -10 -31q-11 -9 -22 -9h-9v27l3 1q5 2 6 4q4 6 4 14v29q0 18 4 26q4 7 10 11q-9 8 -12 18q-2 6 -2 23v25q0 11 -3 14q-4 4 -7 5l-4 1v25h9h6q8 0 16 -8t11 -21q1 -5 1 -13
v-30q0 -14 5 -21q5 -5 9 -7zM50 132q-10 0 -23 11q-8 9 -8 30v35q0 12 -6 18q-4 4 -10 7l-3 1v21l2 1q10 4 11 7q6 6 6 20v32q0 7 1 11q2 13 10 21t14 8h2h17v-28h-8q-5 -2 -5 -3q-3 -3 -3 -14v-25q0 -18 -2 -23q-3 -9 -12 -18q6 -4 10 -11q5 -10 5 -26v-29q0 -10 3 -14
q0 -2 6 -4l3 -1v-27h-10zM135 207q0 -1 0.5 -3t1 -3.5l1 -3t0.5 -2.5v-5l-1 -3q-14 -2 -22 -2q-13 0 -19 6t-6 21v122v17h1h12q12 0 14 -3q5 -8 5 -15v-116q0 -10 8 -10h5z" />
    <glyph glyph-name="uniF114" unicode="&#xf114;" horiz-adv-x="0" 
 />
    <glyph glyph-name="uniF115" unicode="&#xf115;" horiz-adv-x="457" 
d="M89 119q-18 -11 -31 -23q-11 -11 -14.5 -24.5t3.5 -16.5q6 -4 17.5 0.5t21.5 14.5q22 24 13 55q-1 0 -1 -0.5t-1 -0.5v-1zM323 125q-6 -12 -4 -14q19 5 19 24q0 2 -2 8q-7 -6 -13 -18zM397 156q-1 0 -5 0.5t-5 0.5q-21 0 -34 -6q4 -10 4 -16q1 -16 -17 -28q-5 -4 -15 -8
q-7 -4 -12 -2q-14 3 -7 23q6 16 24 31q-6 12 -8 18l-4 18q-11 -22 -25 -42q-1 -1 -1 -2t-1 -2q5 -10 5 -20q1 -18 -14 -28q-2 -2 -4.5 -3t-5.5 -2t-4 -2q-9 -3 -17 -4q-9 0 -11 2q-5 3 -2 9q0 2 21 27q1 1 3.5 4t3.5 5q2 2 5 6q-1 2 -5 9.5t-5 11.5l-4 18q-12 -29 -23 -51
q-16 -31 -17 -32q0 -1 -1 -2l-1 -1q-10 -13 -16 -13q-8 0 -10.5 9.5t-1.5 18.5l1 9q-6 -13 -12 -25q-9 -18 -19 -18q-5 0 -10 4q-16 16 -14 43q1 18 6 30q-5 -3 -17 -9l-9 -5l1 -1q6 -9 5 -31t-12 -39q-12 -19 -33.5 -28t-42.5 -3q-9 3 -14 16t2 34q10 22 67 53l3 1
q-4 4 -29 20.5t-40.5 33t-19.5 35.5q-5 31 38 72q41 38 106 61q46 17 89 8t50 -39q7 -29 -14 -59.5t-54 -43.5q-49 -19 -84 -8q-21 7 -26 21q-3 6 0 7q1 1 6 -4q14 -14 45 -11q51 6 82 38t20 56q-8 18 -44.5 19t-89.5 -23q-86 -43 -90 -90q-1 -16 10 -30t31.5 -29.5
t28.5 -23.5l1 -1q3 1 8 3.5t7 4.5q7 4 17 10t13 7q19 27 40 27q9 0 12.5 -7.5t1.5 -15.5l-1 -7q0 2 1 2l2 1q1 0 3 0.5t5 -0.5t4.5 -2.5t1.5 -3.5l-1 -1l-2 -7q-2 -8 -5 -19.5t-4 -18.5v-14q1 0 3 4q0 2 2 5l1 1q1 2 3 7t4 8q24 52 30 67q1 3 2 8t1 6q2 4 18 4q10 0 10 -5
l-1 -3l-2.5 -7.5t-1.5 -8.5q-1 -7 1 -18q2 -6 6 -15q25 42 28 53q2 10 3 13q2 4 18 4q10 0 10 -4l-1 -3q-1 -4 -2.5 -8.5t-1.5 -8.5q-1 -6 1 -17q1 -7 9 -22q16 9 32 10h9h9q1 0 3 -0.5t5 -1.5t5 -1q18 -4 30 -14q6 -5 12 -16q1 -2 3 -10q2 -7 1 -11l-2 -8q-4 -6 -5 -7
q-2 -2 -5 -4l-3 -1q-3 -2 -4 -3q-2 -2 -4 -2t-2 2t4 4.5t5 4.5q5 5 6 10q1 4 1 9q0 1 -5 11q-5 7 -7 8q-8 6 -16 9l-19 5h-4zM175 169q-8 -10 -15 -29q-3 -10 -4 -20t0.5 -16t4.5 -7t6.5 5t8 18.5t5.5 13.5q15 34 11 42q-5 7 -17 -7zM255 98q-1 -2 0 -2q2 0 4 1q18 11 18 25
v1q-1 -2 -4 -5t-4 -5z" />
    <glyph glyph-name="uniF116" unicode="&#xf116;" horiz-adv-x="496" 
d="M-7 448zM258 294q-16 0 -24 -1q-65 -5 -109 -32t-41 -59t50.5 -50t112.5 -13t108.5 31.5t40.5 58.5q-2 29 -41.5 47.5t-96.5 17.5zM236 288q50 -2 87 -8q12 -20 12 -44q0 -38 -30 -65t-72 -27t-71.5 27t-29.5 65q0 15 4 27q63 26 100 25zM228 288h6q46 2 69 -15
q0 -1 -0.5 -2t-0.5 -2q0 -2 -6 -16h-1q-6 0 -8 -5q0 -4 3 -7q0 -1 -1 -1h-1q-12 -14 -17 -17q-4 23 -27 23q-11 0 -19 -8t-8 -19v-1q-12 4 -24 16h-1l-1 1q5 12 9 19h1q1 -1 2 -1q9 0 9 6v1v1l-1 1l-1 1v2q13 10 33 15q-23 -2 -37 -13h-3q-7 0 -9 -5l1 -2q1 -2 1 -3t-1 -1
t-1 -1q-5 -7 -8 -14q-9 12 -13 32q2 -20 12 -35l-1 -1q-1 -1 -1 -2h1q-2 -4 -2 -5q-2 -12 0 -23h-1v-1q-5 -3 -6 -7t3 -7.5t9 -3.5h1l4.5 -9t5.5 -10l2 -1v-1l-6 3h-1l-1 1q-41 24 -41 72q0 5 1 8q2 16 21 26v-1v-2h1v2l-1 2q20 10 55 10zM246 284h-2q8 0 14 -1q-4 1 -12 1z
M304 272q12 -10 12 -25q0 -9 -1 -14q-1 -16 -10 -31l-3 3q-1 1 -4 3h-1q-1 0 -1 1l-2 1q-12 6 -20 7h-2q11 7 22 24l1 -1q8 0 8 6v0l-1 2l-1 1v1l-1 1q0 1 -1 1q0 1 1.5 6t2.5 8v2h1v4zM190 232q13 -15 29 -19q1 -1 3 -4.5t2 -4.5q-1 -1 -4 -3v-1h-1q-10 -9 -17 -26
q-4 6 -8 13q0 1 -0.5 1t-0.5 1q4 4 5 7q0 9 -10 11q-1 6 1 20v1l1 1v2v1zM270 214q15 -1 33 -14l-1 -1v-1q-25 -38 -69 -38q-11 0 -21 3l-1 1l-2 2l-1 1l-2 2l-1 1q8 21 23 32q7 -6 17 -6q18 0 25 18zM362 317q-1 -3 -4 -7l1 1q-11 -18 -20 -28l22 13l-6 -8l2 2q-3 -4 -6 -9
t0 -5q4 -3 13.5 5.5t17.5 18.5l8 11l-3 -6l-1 -1v-2q-7 -13 -24 -35q7 -2 19.5 8t21.5 21l9 11q-1 -5 -6 -14q-7 -14 -17 -24q8 3 18.5 12.5t16.5 18.5l6 8q-3 -8 -9 -19v-1h-1q-8 -15 -18 -27q8 3 20 15.5t20 23.5l7 10q-3 -8 -9 -19q-9 -18 -25 -34q12 -1 28 7.5t26 17.5
l10 10q-2 -3 -5 -7l1 1q-11 -22 -28 -35q10 -2 22 5t19 15l8 8q-5 -8 -14 -17l11 11q-3 -5 -9.5 -13t-27.5 -21t-43 -12q-4 0 -25.5 12.5t-59.5 23.5t-84 9q-62 -2 -101.5 -17t-79.5 -45.5t-59 -40.5q2 1 5 4.5t4 5.5q-1 -1 -3 -2.5t-3 -1.5q93 93 196 113q2 0 4 2l2 9
q-1 -1 0 -4l3 10q1 -11 6 -13q2 0 5 3l4 10l-2 -6l5 11q-6 -18 0 -19l18 18l-2 -17q1 0 6 5.5t9 11.5l4 6q-9 -16 0 -18q4 -1 9.5 2t8.5 6l3 3q-4 -4 -6 -8l3 3q-1 -3 -3 -5q0 -3 1 -3q8 -3 17 1.5t14 11.5l4 6q-3 -6 -7 -13v-1q-1 -2 -2.5 -4.5t-2.5 -4.5q19 -4 33 24
l-14 -29q4 -2 13.5 6t17.5 16zM411 230q5 0 12 -3t11 -7l4 -3q-7 3 -13 5l15 -10q-15 6 -20 6l30 -16q-8 3 -16 4l18 -9l-28 4l35 -32q-12 9 -24 17l26 -22l-44 27l16 -16q-4 2 -9 5l10 -10q-4 2 -10 5.5t-18.5 8t-17.5 1.5l-1 -1q5 -7 24 -20q-10 6 -15 8q2 -2 8.5 -6.5
t8.5 -6.5q-20 13 -25 9v-4l31 -45q-6 7 -13 14l15 -18l-49 45q-1 0 -1 -2l11 -18l-5 5l7 -10v1q-1 0 -2.5 2t-3 3.5t-4 3.5t-4.5 3.5l-4 3t-4 2.5t-3.5 1.5t-2.5 -0.5t0 -5l30 -57q-3 5 -8 12l9 -17q0 1 -1 2t-4 5.5t-5.5 8.5t-7 9.5t-8 9.5t-8.5 9t-8.5 7t-7.5 3.5t-6 -0.5
q8 -18 11 -28v-2q2 -6 3.5 -11.5t2 -9t0.5 -6.5v-4.5v-2.5v-2h-1q0 2 -1 6l-1 -1q-1 12 -5 26v1q-10 26 -29 25q-10 0 -4 -17l10 -22q-1 3 -4 7l6 -12q-22 38 -37 39q4 -7 12 -29q5 -14 6 -25t0 -15l-1 -4q1 4 0 11l-2 -7q2 13 -3 29q-7 20 -26 34q1 0 1 -1q4 -10 1 -24.5
t-8 -28.5l-5 -13q2 8 4 19l-5 -15q1 4 2 10.5t3 23.5t-1 24q-5 10 -17 5q-3 -1 -3 -11t1 -20l1 -10q0 5 -2 12l1 -8q-2 13 -6 25v1q-3 6 -5 9.5t-5 2.5q-3 0 -13 -15.5t-18 -31.5l-9 -15q5 12 10 25l-11 -20q18 43 20 58q-3 -1 -7 -8.5t-7 -13.5l-3 -7q1 5 2 12l-4 -8l3 23
l-1 1q-2 1 -11 -6t-17 -15l-8 -7q9 10 15 19l-17 -15q18 20 20 29q-7 9 -20 4q-5 -2 -12 -8.5t-11 -11.5l-5 -6q7 11 11 20l-13 -16q13 18 14 28q-4 3 -16.5 -4t-22.5 -16l-11 -8q12 11 18 20l-20 -15q19 18 22 27q-5 3 -50 3q-32 0 -51 15q9 -5 21 -7q-8 2 -23 12
q22 -11 60.5 -8t65.5 -2q82 -23 139 -14q101 15 135 81q3 8 11 8zM411 164l11 -8q-5 4 -11 8zM413 159l11 -8q-5 4 -11 8z" />
    <glyph glyph-name="uniF117" unicode="&#xf117;" horiz-adv-x="390" 
d="M-8 448zM195 448q78 0 136.5 -23.5t58.5 -66.5v-265q0 -43 -58.5 -66.5t-136.5 -23.5t-136.5 23.5t-58.5 66.5v265q0 43 58.5 66.5t136.5 23.5zM362 93v52q-43 -45 -167 -45q-123 0 -167 45v-52q0 -26 49 -44.5t118 -18.5t118 18.5t49 44.5zM362 177v52q-43 -45 -167 -45
q-123 0 -167 45v-52v-1q0 -26 49 -44t118 -18t118 18t49 44v1zM362 260v48q-53 -41 -167 -41t-167 41v-48v0q0 -26 49 -44.5t118 -18.5t118 18.5t49 44.5v0zM195 295q69 0 118 18.5t49 44.5t-49 44t-118 18t-118 -18t-49 -44t49 -44.5t118 -18.5zM306 86q0 14 14 14t14 -14
t-14 -14t-14 14zM306 170q0 14 14 14t14 -14t-14 -14t-14 14zM306 253q0 14 14 14t14 -14t-14 -14t-14 14z" />
    <glyph glyph-name="uniF118" unicode="&#xf118;" 
d="M-8 448zM259 423h1q3 0 3 -3t-2 -3q-26 -12 -38 -37q-1 -1 -3 -1q-3 0 -3 3v1l5 15q-3 0 -3 3v1q3 9 7 13t14 6q3 0 3 -3q7 4 15 5h1zM328 419q26 -1 52 -23q32 -27 34 -28q14 -9 17 -13q6 -7 13 -21q4 1 10 5q2 2 6.5 8t7.5 9t8 3q3 0 9 -2q10 -3 13 -10q17 -33 13 -86
q-5 -54 -42 -73q-25 -12 -60 -7q-1 -2 -2 -5.5t-1 -5.5q-3 -11 -13.5 -18t-22.5 -8q-9 0 -17 5q-7 5 -13 10q-2 1 -5 4l-4 4v-1q1 -2 3.5 -9t4.5 -10q5 -13 5 -22q0 -3 0.5 -11t0.5 -11q3 -5 3 -14q-2 -12 -8 -16q-5 -3 -17 -3q-2 0 -12 0.5t-13 0.5q-8 0 -11 1q-1 0 -5 2
q-3 -3 -11 -9q-4 -4 -6 -5q-1 0 -1 -1l-2 -1q-1 -1 -2.5 -4t-2.5 -4q-3 -4 -8 -7q-16 -9 -29 -1q-10 6 -20 23t-11 20q-2 8 -1 12q2 7 8 10l1 1h1q-17 0 -26 1v-2q0 -2 0.5 -5t0.5 -4q0 -4 -4 -10q-6 -10 -8 -14q1 -7 -2 -18q-1 -6 -9 -10q-2 -1 -15 -1q-17 2 -27 5
q-18 5 -23 8q-7 5 -8 9q-2 6 2 15q1 1 1.5 3.5t0.5 3.5q-7 -1 -18 4q-12 6 -19 13q-12 12 -15 29q-1 4 1 10q0 1 6 7l15 15q1 2 2.5 7t2.5 8q-1 4 -1 12q-2 27 0 37q-6 -1 -10 0q-8 2 -13 11q-2 5 -4 13q-8 8 -6 17q1 6 9 16q5 6 15 12q8 5 13 6h1q3 0 3 -3v-1
q-1 -2 -2 -4.5t-1 -3.5q5 -5 5 -11q1 -5 -1 -13q0 -2 -3 -2q-2 0 -3 1q-1 2 -3 4v-7q-2 -6 -5 -9h2q5 2 18 15q9 19 25 33q33 29 92 38q11 11 17 16q8 7 22 9q22 29 43 38q35 14 59 13zM327 405q-19 1 -54 -14q-16 -7 -28 -22q16 0 25 1q4 0 4 -3t-3 -3q-12 -3 -34 -7
q-2 0 -7 -0.5t-7 -1.5q-1 0 -2.5 -1.5l-3.5 -3.5t-4 -3q-10 -9 -26 -27.5t-22 -25.5q-11 -12 -19 -30q-3 -5 -3 -12q0 -2 6 -10t12 -20q1 2 26 32q1 1 2 1q3 0 3 -3v-2q-1 -2 -10 -17t-13 -23q-6 -12 -6 -19q11 -12 19 -15q10 -3 21 2q4 2 12.5 7t14 7.5t13.5 5t15 3.5
q11 20 3 60q-4 25 2 53q0 3 3 3t3 -3v-1q1 -23 6 -49q8 -42 -5 -74q0 -2 -3 -2q-7 0 -15.5 -3t-14 -5.5t-15 -8t-14.5 -7.5q-14 -7 -30 -3q-12 3 -30 23v1l-1 1v1q2 13 5 20q-4 9 -16 26q-9 13 -9 18q0 8 6 20q10 22 19 32q3 3 9.5 10t9.5 11q-39 -7 -66 -30
q-22 -19 -33 -52q-7 -18 -4 -47q4 -39 33 -80q1 -1 1 -2v-1q-3 -19 -9 -35q-2 -3 0 -5q1 -1 5 -3q7 -3 15 -5q13 -3 19 -4h10q3 0 3 2q1 5 1 14l1 2q3 6 9 16q4 8 4 14v31v1q0 3 3 3q4 0 4 -3q1 -5 3 -17q23 -4 52 1v2q1 3 3 7t2 6q0 3 3 3q4 0 4 -4q0 -2 -0.5 -6.5
t-0.5 -6.5v-12q0 -1 0.5 -3.5t0.5 -3.5v-1q0 -3 -4 -3q-1 0 -2 1q0 1 -2 3q0 2 -1 2q-3 -2 -9.5 -6t-9.5 -6q-2 -2 -2 -3q0 -4 1 -6q3 -6 7 -13q9 -14 13 -17q7 -6 15 -2q1 1 10 12l1 1q1 0 2 1q1 2 3 3q6 4 10 8q1 1 10 7l3 3t3 2t2 1q2 2 3 4q1 1 2.5 3.5t3 4.5t2.5 4
t7 13q4 8 4 9q12 39 13 45q-12 6 -25 20q-1 1 -1 2q0 3 3 3l1 -1h1q15 -11 34 -17l2 -1q3 -2 7 -6t7 -6q1 -1 5 -4.5t6 -4.5l-2 2q-2 3 -2 9q0 3 3 18q2 6 0 18v1v1l-1 -1q-1 -1 -2 -3q-5 -9 -5 -11t-2 -2q-4 0 -4 3q0 2 0.5 5.5t1.5 5.5q2 8 3 9q2 2 9 4q5 0 11 2q3 0 3 -3
q0 -2 -1 -3q-1 0 -4 -2t-5 -2h1q12 -7 14 -8q59 -20 86 -4q29 16 35 61q4 42 -11 77q0 1 -2 3q-6 -19 -25 -26q-7 -2 -10 -1q-3 0 -7 2v-3q3 -15 0 -31q-6 -25 -9 -28q-1 -1 -2 -1q-3 0 -3 3v1q1 6 4 26q0 7 -1 12l-4 -2q-4 -2 -4 -4q-2 -4 -4.5 -12.5t-5.5 -13.5
q0 -2 -3 -2t-3 3v1q3 6 3 14q0 9 2 15l1 1q-3 -1 -6 -6q-5 -10 -9 -15q-1 -1 -2 -1q-4 0 -4 3l1 2q2 4 4 11l3 7q4 9 16 12h6h-13q-3 0 -3 3t1 3h1l1 1q-1 2 -1 7v0q-4 0 -5 1q-2 0 -2 3t3 3q5 0 11 4v0l1 1q3 1 8 1h3q-2 4 -8 12q-3 4 -12 10q-1 1 -4 3q-6 2 -12 0h-1
q-3 0 -3 4q0 3 2 3q1 1 3 1q-8 6 -20 16q-22 20 -46 21zM336 352q4 0 4 -3t-3 -3q-20 -9 -23 -28q0 -3 -3 -3t-3 3q-3 12 3 21q6 8 24 13h1zM266 351h1q3 0 3 -3t-2 -3q-16 -6 -24 -8q-10 -13 -12 -25q0 -3 -3 -3t-3 3q-1 6 -1 13q-2 -2 -4.5 -7l-3.5 -7q-8 -18 -10 -23
q0 -2 -3 -2t-3 3v1q2 15 7 26q8 20 13 25q3 3 8 5q6 2 9 2q5 0 14 1t14 2v0zM478 345l-1 -1q-1 -1 -6.5 -7.5t-9.5 -9.5q-1 -1 -7 -4q2 0 3 1q1 0 2 1l2 2q11 8 17 18zM366 324v0q3 0 3 -3q0 -2 -1 -3l-6 -3q6 -5 6 -7v-1q1 -1 1 -2q8 2 12 2h1q3 0 3 -3t-3 -3
q-24 -7 -41 -27q-1 -1 -2 -1q-4 0 -4 4l1 1q2 4 4 7l-6 6v1l-1 2q-6 -4 -9 -5h-1q-3 0 -3 3q0 1 1 2q3 2 10 11q7 10 10 11q4 3 12 5q10 3 11 3h2zM31 310q3 0 3 -3q0 -1 -1 -2q-18 -20 -21 -48q0 -2 -3 -2t-3 2q-1 6 -1 16h-1q-4 0 -4 3q0 10 2 14q2 5 10 11q1 1 2 1t3 -2
q5 4 12 9q1 1 2 1zM426 308h4v-1q-1 1 -4 1zM45 285q-5 -5 -7 -8q-4 -6 -4 -9q0 -4 4 -8q6 4 6 11q0 9 1 14zM59 248q-2 -2 -3 -2q-6 -2 -7 -2q-2 0 -6 2q-1 0 -1 2l1 -2q1 -3 6 -3q3 0 9 2v1zM391 168q-2 -2 -6 -4v-1q1 1 3 2.5t3 2.5zM63 159l-1 -2q-3 -2 -8 -6.5t-7 -7.5
l-3 -4v-3q2 -10 11 -19q7 -7 15 -11q3 -2 9 -2q4 0 5 2q1 1 1.5 3t0.5 3q-14 22 -23 47zM326 145q-1 -2 -3.5 -8.5t-3.5 -10.5q-3 -9 -12 -24q-4 -7 -12 -17q1 0 2 -0.5t3 -0.5h12h12h8q2 2 2 7t-2 9l-1 1v24q0 5 -5 17v2v1z" />
    <glyph glyph-name="uniF119" unicode="&#xf119;" 
d="M-8 448zM501 378q11 0 11 -11q0 -24 -22 -44q-3 -3 -11 -9t-14 -12t-11 -14q-4 -5 -6.5 -16t-5 -26t-5.5 -24q-17 -62 -18 -65q-6 -13 -0.5 -36.5t18.5 -26.5q-16 -12 -37.5 -9.5t-31.5 17.5q-13 -3 -24.5 -21.5t-19.5 -23.5q-13 -8 -50 -17q-22 -4 -18 1q27 39 30 48
q-6 1 -32.5 5t-32 4.5t-31 2t-29.5 -1.5q-13 -2 -23.5 -7t-23.5 -13.5t-17 -11.5q-19 -11 -40 -15t-34 -1.5t-15 7.5q-2 4 2 7.5t9.5 7t6.5 5.5q-16 -2 -26 8q13 15 49.5 17.5t44.5 10.5t16.5 22t16.5 21q30 27 67 39q3 1 45 11t65 23t55.5 66t61.5 65q11 5 32 7.5t25 3.5
q8 2 13.5 4t9.5 2zM499 374h-1l-2 -1l-1 -1l-1 -1q-1 -1 -5 -3v-2l1 -1v-1l2 -2l1 -1q1 -1 5 -1h2h2q1 -1 2 -1l2 1l1 1v3v1v5l-1 2l-2 2h-2h-2h-1zM482 360q-1 0 -2 -1q-16 -16 -21 -31v-2l2 2q5 14 21 30q2 2 0 2zM484 357q-1 0 -2 -1q-14 -17 -16 -29l1 -2l1 2
q1 6 4 11.5t7 10.5t5 6q2 2 0 2zM486 355l-2 -2q-10 -18 -11 -27l1 -2l1 2q1 10 11 27q2 2 0 2zM488 353q0 -1 -1 -2q-7 -12 -7 -25h1q0 8 7 25q2 2 0 2zM445 347q-17 0 -20 -15q7 -7 17 -1.5t8 16.5h-5zM407 137q-1 -2 -8 -8.5t-11.5 -12t-5.5 -11.5q4 -7 17 -10t22 -1
q-11 11 -14 43z" />
    <glyph glyph-name="uniF11A" unicode="&#xf11a;" horiz-adv-x="217" 
d="M119 -50l-13 5q3 31 -4 52q-1 2 2 9q0 2 1 6t1 6q1 2 1.5 6t0.5 8t0.5 8t0.5 6v2q1 -5 1 -15q2 -23 14 -31q-1 -1 -4 -11q-2 -7 -2 -20v-22zM213 242q7 -46 1 -83t-20 -64t-29 -45t-27 -27l-11 -9q-15 7 -17 59q5 53 3 126q0 6 -0.5 62t-1.5 108.5t-4 62.5q8 -17 15 -27
q1 -2 19.5 -21t39.5 -55.5t32 -86.5zM111 120l-2 -47q-3 -51 -9 -63q-4 3 -11.5 8.5t-25 25t-31 41t-24 55t-8.5 69.5q3 57 25 105.5t39 66.5t31 29q10 11 11 24v-2z" />
    <glyph glyph-name="uniF11B" unicode="&#xf11b;" horiz-adv-x="486" 
d="M-8 448zM29 448q21 0 54 -22q2 -1 7.5 -6t8.5 -6q4 0 12 -1t12 -1q37 -10 43 -14q82 -52 128 -133q4 -7 9 -21.5t7 -19.5q5 -12 15.5 -34.5t12.5 -26.5q2 -3 6 -13.5t7 -14.5q1 -1 3 -2t5.5 -2t4.5 -2q4 -2 16.5 -8t18.5 -10q18 -13 54 -44q3 -3 8 -10.5t8 -10.5v-3
q-2 -1 -7 -2.5t-8 -2.5q-6 -1 -17 -2.5t-17 -3.5q-13 -4 -22 -5l1 -1q2 -6 8.5 -11.5t16.5 -12t12 -8.5q22 -17 35 -35l10 -11q1 -2 2.5 -6t2.5 -5v-1l-10 2q-10 1 -25.5 4t-30.5 8q-71 23 -73 25q-43 15 -69.5 26.5t-33.5 15t-16 10t-10 7.5q-6 3 -13.5 11t-10.5 10
q-28 22 -43 48q-3 5 -7 14.5t-6 14.5v1q-1 -1 -3 -10q-1 -5 -2 -16.5t-3.5 -18t-9.5 -9.5q-19 -8 -35 21q-13 23 -16 56t6 63q1 2 3 12t5 14q0 1 -9 13q-2 3 -4 6.5t-4.5 8t-3.5 6.5q-6 13 -17 48q-1 2 -2 9t-3 10q-4 8 -17 26q-1 2 -6 8.5t-7.5 10.5t-6.5 12.5t-3 13
t2 13.5q6 18 27 18zM113 392h-3q-5 1 -10.5 -2t-6 -7t4.5 -8q6 -6 20 -36q12 7 15 21t-7 24q-11 8 -13 8z" />
    <glyph glyph-name="uniF11C" unicode="&#xf11c;" horiz-adv-x="486" 
d="M-8 448zM447 52q0 3 -22 20l-33 24q-3 2 -12 5.5t-11 4.5q-3 1 -11 3.5t-14.5 5.5t-8.5 6q-8 11 -23 48q-3 9 -11.5 26t-11.5 26q-6 18 -9 24q-37 78 -103 122q-21 15 -48 24q-5 2 -16 2.5t-16 1.5h-7q-3 1 -8.5 6t-7.5 6q-16 12 -32 18q-17 7 -21 3q-4 -1 -5 -5
q-3 -4 2 -14q1 -3 18 -28q12 -16 17 -27t10.5 -32t9.5 -30q2 -6 12 -23q12 -14 12 -16q2 -3 -8 -38q-15 -49 3 -94q9 -22 18 -25l1 1q4 41 9 53q2 6 9 15t7 10q2 -1 3 -6.5t2 -6.5q2 -5 15 -34q18 -38 37 -65q10 -14 17 -21q1 -1 4 -3t4 -4v-1q-6 2 -14 10.5t-10 10.5
q-28 22 -43 48q-3 5 -7 14.5t-6 14.5v1q-1 -1 -3 -10q-1 -5 -2 -17t-3.5 -18.5t-9.5 -9.5q-19 -8 -35 21q-13 23 -16 56t6 63q1 2 3 12.5t5 14.5q-1 4 -6 8q-2 3 -3 4q-3 4 -7 12l-5 10q-6 13 -17 48q-1 2 -2 9t-3 10q-4 8 -17 26q-1 2 -6 8.5t-7.5 10.5t-6.5 12.5t-3 13
t2 13.5q15 41 81 -4q2 -1 7.5 -6t8.5 -6q4 0 12 -1t12 -1q34 -9 43 -15q83 -52 128 -132q4 -7 9 -21.5t7 -19.5q2 -7 27 -61q2 -3 6.5 -13t7.5 -15q1 -1 3 -2t5.5 -2t4.5 -2q3 -2 15.5 -8t18.5 -10q23 -16 55 -44q3 -3 8 -10.5t8 -10.5v-3q-2 -1 -7 -2.5t-8 -2.5
q-6 -1 -17 -2.5t-17 -3.5q-13 -4 -22 -5v-1q2 -6 8.5 -12t16.5 -12t13 -8q22 -17 35 -35l10 -11q1 -2 2.5 -6t2.5 -5v-1q-3 1 -6.5 4.5l-4.5 4.5q-14 12 -21 17t-21 12t-19 10q-20 14 -22 16q-8 7 -17 22q-1 1 -2 5t-3 6q0 2 1.5 4t3 2.5l4.5 1.5t4 1q24 11 64 10zM98 355
q1 -1 4.5 -3.5t4.5 -4.5q1 -1 2 -3.5t2 -3.5q0 -14 -7 -18q-1 3 -4 8t-4 8q-1 2 -4.5 7t-5.5 8h-1v1q4 1 13 1z" />
    <glyph glyph-name="uniF11D" unicode="&#xf11d;" horiz-adv-x="481" 
d="M-8 448zM349 448q75 0 118 -51q12 -14 12 -45q0 -21 -10 -56q-18 -61 -51 -113q8 0 25 3q18 4 29 -4q11 -7 9 -19q-1 -7 -5 -13q-9 -14 -35 -24q-26 -11 -56 -9h-1h-3q0 -1 -0.5 -3.5t-0.5 -3.5q-1 -65 -23 -92q-17 -23 -54 -29q-38 -8 -58 14q-9 10 -15 28q-6 16 -8 55
q0 3 -0.5 9.5t-0.5 9.5q-9 -5 -18 -6q-17 -3 -40 2q-3 1 -14 5q-8 4 -12 9q-13 -10 -27 -10q-18 -1 -35 14q-22 20 -40 66q-15 40 -25 80q-8 35 -10 55q-3 61 29 93q27 27 74 29q36 2 87 -13q26 14 62 14q18 0 35 -3h2q1 0 5.5 1.5t8.5 2.5q24 4 46 4zM345 436q-18 0 -43 -5
q-8 -1 -12 -3h-1q-1 -1 -2 -1h-1q-22 4 -35 4q-35 0 -59 -16q-34 13 -72 15h-17q-41 -2 -64 -25q-28 -28 -25 -84q3 -23 10 -53q11 -45 24 -78q17 -45 36 -61q11 -11 25 -11t27 15t38 40q14 -7 27 -7l1 -1l-4 -4t-3 -3.5t-2.5 -2.5t-2.5 -2q-5 -3 -23 -7q-13 -3 -17 -6
q-4 -4 -5 -7t1 -7q2 -3 9 -8q1 0 11 -3q17 -4 34 -2q19 4 32 14q0 -34 1 -48q0 -12 2 -28q1 -12 4 -17q9 -18 18 -25q17 -14 47 -8q27 5 39 17t17 36q8 44 11 78q6 -2 20 -2q25 0 44 8q22 10 29 20q3 6 3 7q0 5 -4 8t-17 1q-32 -6 -47 -1l-1 1q-2 0 -2 1q39 56 59 125
q9 30 9 53q0 26 -9 36q-40 47 -110 47zM345 423q63 0 99 -42q6 -6 6 -28q0 -20 -8 -50q-17 -60 -55 -116l-1 1q0 2 -1 2q13 19 11 44q0 6 -2 20t-2 21q0 6 3 20t2 24v3l-1 2v2l-2 5q-1 5 -2 8q-11 21 -24 37q-26 29 -58 43q18 4 35 4zM251 418q65 -1 106 -50q15 -18 22 -34
l2 -6q-36 3 -50 -12q-14 -14 -6 -42q4 -14 20 -44q2 -3 5 -9l4 -8t2.5 -4t2.5 -3l1 -2q4 -8 14 -21q1 -1 2.5 -3.5t2.5 -3.5q-4 0 -6 -1q-7 -4 -11 -10q-4 -7 -4 -19v-1q-4 -50 -12 -89q-3 -21 -13 -29q-12 -10 -32 -14q-20 -5 -35 6q-7 5 -14 19q-1 2 -3 15q-2 14 -2 26
q-2 32 0 72q0 1 -0.5 1t-0.5 1v1v0q0 3 -1 5q-5 11 -15 15q-4 2 -11 2h-3q1 5 7 19l7 14q6 14 8 21.5t2 26.5t-5 41q-4 19 -22 26q-5 2 -15 2q-6 0 -16 -2q-19 -4 -28 -9v-1q2 25 11 47q11 26 28 40q0 1 2 1q1 0 2 1q22 15 54 15zM115 417q29 -1 64 -11q-16 -14 -27 -41
q-6 -14 -9 -30.5t-3 -25.5l-1 -9v-1q0 -1 0.5 -7.5t0.5 -12.5q0 -24 -2 -38q-6 -36 24 -61q-19 -19 -37 -39q-10 -10 -16 -10q-7 0 -15 7q-17 15 -33 56q-13 32 -24 77q-9 36 -9 51q-3 50 21 74q19 19 55 21h11zM365 316h6q7 0 12 -1q0 -7 -2 -20t-2 -20q0 -2 3 -41
q1 -16 -6 -32q-2 4 -3 7q0 1 -1 2.5t-2.5 3.5t-2.5 4q-1 1 -4.5 7t-5.5 10q-13 23 -18 41q-7 21 3 31q7 7 23 8zM198 313q7 0 10 -1q10 -4 13 -16q5 -21 5 -38t-2 -24t-7.5 -19.5t-6.5 -14.5q-3 -7 -7 -21q-23 0 -39 18t-12 42q2 15 2 40q0 6 -0.5 12t-0.5 7l1 1q4 2 7 4
q13 7 24 9q4 1 13 1zM362 309h-4q-4 0 -8 -2l-2 -2q-1 -1 -1 -2q0 -2 1 -3l1 -1q1 -1 2 -1q4 -2 8 -2t8 4q1 0 1 1t1 2t1 3q0 1 -1 2t-3 1h-4zM199 306h-4q-3 0 -4 -1l-1 -2l-1 -1q0 -3 1 -4l3 -3q4 -4 8 -4q8 0 10 2l2 2q2 2 2 3q0 3 -1 4l-1 1q-1 1 -2 1q-4 2 -8 2h-4z
M387 165q1 0 3 -1.5t4 -2.5q17 -7 55 1q-4 -4 -20 -12q-16 -7 -38 -7q-8 0 -16 2l-3 1q0 9 2 13q1 2 5 4q1 1 4 1.5t4 0.5zM220 163q3 0 5 -1q6 -3 7 -7q2 -7 -1 -10q-12 -15 -33 -19q-16 -3 -29 1q-1 1 -3.5 2t-3.5 1h-1l-1 1l10 2q20 4 29 10q3 2 8.5 8.5t7.5 8.5q3 3 5 3
z" />
    <glyph glyph-name="uniF11E" unicode="&#xf11e;" horiz-adv-x="421" 
d="M-8 448zM171 448q1 0 2 -5q3 -13 10 -28q4 -9 23 -45l1 -2q21 -3 42 -8q67 -14 108 -36q30 -17 49 -41q3 -4 14 -20l1 -1l-6 -1q-65 -10 -159 -38v-2q1 -4 3 -33v-11v-16v-10q-4 -44 -8 -60q-8 -34 -33 -87q-2 -4 -4 -8.5t-4 -6.5l-1 -2h-12q-46 2 -95 14q-30 8 -44 15
q-36 17 -51 37q-11 17 -5 35q3 9 13 23q9 11 19 18l1 1h-1q70 58 92 105q11 25 11 50q-1 38 -25 66l-35 35q-4 4 -6 8l-1 1v1v1v1v1l1 1q1 3 9 8q18 13 48 25q40 15 43 15zM169 444q-1 0 -7.5 -3t-16.5 -7t-13 -5l-24 -13q2 0 6 -1q45 -6 63 -11l2 1q0 1 -2 6q-6 21 -7 29v4
h-1zM102 413l4 -3l25 -25l7 -6q1 0 3.5 -0.5t3.5 -0.5l4 2q16 10 28 16l5 2h-5q-42 4 -72 14zM100 411l-1 -1q-16 -11 -16 -18v-1q1 0 1 -0.5t1 -0.5h1v-1h1h3v-1q1 0 2.5 -0.5t2.5 -0.5t3 -1h3l1 -1h1q2 0 9 -1.5t11 -2.5q-1 2 -2 3q-4 4 -12 15zM183 394q-2 -2 -4 -3
q-7 -6 -21 -14l-1 -1q3 -1 16.5 -3.5t22.5 -3.5v1q-6 8 -11 22zM89 382q1 -1 3 -2q23 -19 36 -41l2 -3l-2 6q-1 4 -3.5 12t-4.5 14l-2 6q-3 1 -7 2q-1 0 -4.5 1t-5.5 2q-4 1 -10 3l-2 1v-1zM123 373q0 -1 1 -3q7 -14 13 -34l1 -3q1 2 3 4q7 7 20 15q9 6 15 9l2 1q-2 1 -4 1
q-26 4 -47 9zM184 362q-2 0 -27 -21l-13 -13q5 -1 11 -3q3 -1 10 -3t12 -3.5t8 -2.5l4 -1v1v6q0 22 -3 32zM188 361q0 -2 1 -3q8 -18 8 -37v-5q2 3 6 5q18 12 46 24l6 3l-4 1q-4 1 -10.5 2.5t-10.5 2.5zM262 346q-15 -8 -25 -14l-33 -22q2 -2 5 -3q17 -7 27 -13l4 -2
q2 2 3 5q13 22 18 40l2 9h-1zM268 345q-1 -1 -1 -2q-1 -19 -13 -46l-2 -4l4 2q31 12 81 24l3 1l-5 3q-12 6 -47 17q-18 5 -20 5zM141 316q1 -1 1 -3q4 -27 1 -42v-1q3 2 6 5q5 5 14 13.5t14 12.5l4 3q-16 7 -24 9zM345 316q-10 -2 -18 -5q-14 -4 -53 -19l-21 -9q1 0 2 -1
l2 -2q2 -1 3 -2q15 -12 28 -32l2 -2q2 2 5 6q1 2 8 10t11 13q14 17 24 32zM350 315q-1 -4 -3 -7q-14 -29 -42 -56l-6 -6q3 0 5 1q55 14 103 17l7 1l-13 13q-18 18 -47 35zM195 299q-1 -1 -1 -2q-5 -23 -14 -39l-1 -3l6 4q7 4 19.5 10.5t16.5 8.5l7 4q-10 6 -16 9q-3 1 -7 3
t-7 4zM186 297q-13 -10 -20 -16q-4 -3 -9.5 -8t-8.5 -8l-4 -3l4 -2q1 0 13 -10l4 -4l1 3q0 1 1.5 3t2.5 3q5 8 12 29zM242 274l-3 -3q-17 -26 -47 -54l-6 -6l6 2q32 12 85 27l6 2l-1 1q-5 5 -13 11q-13 11 -24 18zM227 271q-14 -7 -23 -12q-32 -18 -34 -19q0 -2 2 -5
q5 -10 5 -25l1 -2q3 3 6 7q4 4 14 16.5l14 17.5zM139 249q-1 -1 -2 -3t-2.5 -7t-2.5 -8q-2 -5 -10 -16l6 4q11 9 22 17l4 3q-8 6 -12 8zM162 231q-2 -2 -3 -4q-22 -26 -52 -48l-5 -4q3 1 6 3q6 4 12 6q7 3 43 18l10 4v1q-2 11 -8 20zM152 228q-25 -16 -35 -23l-7 -7
q-8 -10 -12 -14l-7 -8l4 2q23 14 43 35zM245 220l-39 -13q6 -6 22 -15q18 -11 20 -11v5q-3 33 -3 34zM199 205q-1 0 -1 -0.5t-1 -0.5v-6q0 -22 -8 -49v-4q3 1 6 3q33 16 48 26l4 2v2h-1q-21 10 -42 24q-3 3 -5 3zM188 201q-1 -1 -3.5 -2t-3.5 -1q-11 -4 -31 -12q0 -1 2 -4.5
t2 -4.5q4 -8 13 -19l13 -12q0 2 1 5q6 23 7 30v20zM143 183q-1 0 -3 -1v-1q0 -1 -1 -3q-1 -3 -2 -4q-12 -30 -27 -55l-2 -3l12 4q27 8 44 15l11 5q-2 2 -4 3q-5 4 -16 17q-8 12 -11 21zM128 177q-21 -9 -39 -18l-1 -2q-1 -2 -1 -3q-2 -11 0 -20q1 -6 5 -16l2 -2q2 2 4 5
q10 16 24 42q2 3 4 8t2 6zM249 173l-1 -1l-12 -9q-13 -10 -38 -22l-7 -4q9 -6 16 -10q10 -6 33 -13l4 -2q1 2 1 5q4 32 4 53v3zM76 152l-5 -2.5l-5 -2.5q-8 -4 -14 -8q-10 -7 -18 -15q-18 -18 -21 -35q0 -1 1 -1l8 2q6 2 21.5 6.5t27.5 7.5l12 4l-2 6q-7 15 -6 28v7z
M185 133q-1 -2 -1 -3q-6 -22 -22 -50l-3 -6q0 1 1 1l10 4q62 24 71 29l2 1l-1 1q-30 7 -54 21zM173 129q-2 -1 -5 -2q-32 -13 -61 -21l-6 -2l1 -1q16 -19 37 -32l4 -2q2 3 5 8q16 28 24 49zM242 105q-1 0 -2 -1q-19 -12 -76 -37l-9 -4q7 -4 12 -6q19 -8 57 -15v-1l4 10
q5 16 8 28q6 20 6 26zM83 100q-3 -1 -7 -2q-20 -5 -25 -6q-7 -2 -16.5 -4t-14.5 -4l-6 -1q-2 0 0 -5q4 -14 12 -23q6 -7 13 -13l3 -2l3 4l6 9q1 1 5 7l6 9zM92 96l-12 -15q-23 -27 -33 -41l-2 -3l1 -1l2 -1q9 3 20 7l63 22q-2 2 -4 3q-18 11 -33 27zM148 56l-4 -6
q-8 -12 -29 -38l-3 -5q2 -1 3 -1q4 1 10 3q14 4 43.5 12.5t35.5 10.5l18 7h-2q-18 2 -39 7q-5 1 -26 8zM136 56q-2 0 -4 -1q-1 0 -21 -6t-38 -11l-21 -6l12 -7l16 -8l13.5 -4.5t11.5 -3.5l1 -1l2 4q0 1 2 4t3 4q1 2 9 14zM222 36l-4 -2q-30 -13 -41 -16q-22 -6 -44 -11
l-10 -3h1q3 -1 12.5 -2.5t22.5 -3.5t19 -3q20 -4 28 -4q0 1 1 3q16 40 16 42h-1z" />
    <glyph glyph-name="uniF11F" unicode="&#xf11f;" horiz-adv-x="485" 
d="M460 397q11 0 16 -3q4 -3 9 -14v-384q-4 -19 -12 -26q-1 -1 -23 -4h-405q-30 0 -44 33v374q7 18 26 20v-329q0 -28 1 -34q2 -11 11 -18t20 -7h375q10 0 18 7.5t10 17.5v63t1 63q-3 80 -3 241zM428 421h-6h-4h-2h-55h-90h-90h-128q-9 0 -17 -8q-3 -4 -3 -19v-250v-79v-13
q0 -13 1 -19q4 -16 20 -16h97h80h80h120q15 0 17 15q1 27 1 81v44v54v186v1q0 10 -2 13v0q-4 7 -14 10h-5zM428 432h7q17 -4 22 -16q3 -5 3 -19v-240v-63t-1 -63q-2 -10 -10 -17.5t-18 -7.5h-120h-158h-98q-10 0 -18.5 7t-10.5 18q-1 6 -1 34v329q0 19 6 26q12 12 27 12h128
h178h55h1h8zM188 324q25 29 71 24q29 -3 54 -26q-3 -5 -12 -14.5t-12 -14.5q-26 21 -52 15q-7 -1 -11.5 -6t-3.5 -12q1 -9 15 -16q3 -1 20.5 -8t26.5 -11q22 -8 31 -28q15 -31 -7 -60q-14 -18 -39 -25q-58 -15 -100 25l3 6q3 4 10.5 13t11.5 13q26 -22 53 -21q21 0 24 14
q5 15 -10 21q-17 9 -51 23q-23 12 -29 27q-19 31 7 61zM0 0q14 -34 44 -33h405q17 0 22 4q11 7 13 26v-15q-4 -24 -19 -29h-18h-398q-15 0 -18 2q-26 11 -31 35v10z" />
    <glyph glyph-name="uniF120" unicode="&#xf120;" horiz-adv-x="500" 
d="M0 448zM99 310h50q2 0 4 -1t2 -5v-25h-27q-5 0 -8 -3q-2 -2 -2 -9v-114q0 -5 2 -9q2 -3 8 -3h27v-25q0 -4 -2 -5t-4 -1h-53q-5 0 -8 3t-3 8v67h-70q-9 0 -12 5t-3 10v10q0 5 3 10t11 5h71v68q0 8 4 11t10 3zM351 310h50q5 0 10 -3t5 -11v-68h70q8 0 11 -5t3 -10v-10
q0 -5 -3 -10t-11 -5h-70v-67q0 -4 -4 -8q-3 -3 -7 -3h-54q-2 0 -4 1t-2 5v25h27q5 0 8 3q2 2 2 9v114q0 5 -2 9q-2 3 -8 3h-27v25q0 4 2 5t4 1zM140 263h110v-27l-27 -27l27 -27v-27h-110q-5 0 -5 6v96q0 6 5 6zM267 263h93q6 0 6 -6v-95q0 -6 -6 -6h-93v27l-27 27l27 26v27
zM191 228q-7 0 -12 -5t-5 -12q0 -8 5 -13t12 -5q8 0 13 5t5 13q0 7 -5 12t-13 5zM309 228q-7 0 -12 -5t-5 -12q0 -8 5 -13t12 -5q8 0 13 5t5 13q0 7 -5 12t-13 5z" />
    <glyph glyph-name="uniF121" unicode="&#xf121;" 
d="M-8 448zM252 447h8q22 0 33 -2q83 -12 145 -74q24 -25 41 -53q19 -33 23 -52q0 -2 1 -5t1 -5q5 -16 7 -48q3 -53 -11 -97q-11 -34 -22 -49l-10 -15q-12 -18 -31 -37q-63 -62 -146 -72q-25 -3 -61 -1q-106 11 -176 97q-6 8 -17 25l-8 12q-4 6 -6 12q-1 3 -4 9q-6 14 -9 29
q-10 35 -10 68q0 21 4 47q1 9 7 30q5 17 15 39q12 25 31 47q12 15 38 38q51 41 108 52q25 5 49 5zM140 301h-38l1 -12q3 -20 12 -39q12 -24 33 -42q12 -10 21 -16q18 -11 31 -15q5 -2 9 -5q15 -11 19 -32t-1 -41q-7 -26 -17 -44q-7 -14 -7 -16q0 -4 5 -7q12 -7 30 -9h7
q8 -2 22 0q31 3 37 13q2 3 -1 9l-3 6q-2 3 -4 7q-12 24 -17 51q0 1 -0.5 6t-0.5 8q0 9 2 17q2 12 6 16q3 3 4 5q9 13 17 16q9 3 28 13q33 20 51 49q8 13 9 18q3 6 4 9q6 18 6 32v3h-151h-114zM50 238v-4q1 -15 9 -30q7 -12 22 -25q14 -13 27 -16q10 -3 16 -13q4 -8 4 -18
q0 -19 -11 -41q-5 -10 -5 -12q0 -3 6 -5q8 -4 20 -5q8 0 14 1q13 2 17 4q6 2 6 6l-1 2q-1 1 -2.5 4l-2.5 5q-6 11 -9 25q-3 15 -2 21q2 13 6 18q4 6 11 8l14 6q-2 2 -6 3q-18 7 -36 20q-12 9 -26 26q-1 1 -3.5 4.5t-3.5 5.5q-1 1 -3 4l-2 4l-1 2h-58zM400 238l-2 -4
q-9 -15 -24 -30q-12 -12 -32 -24q-10 -6 -17 -8l-5 -2q0 -3 11 -6q10 -3 13 -6q5 -4 8 -17q1 -3 1 -11q-1 -19 -12 -39l-5 -11q0 -2 6 -6q15 -6 39 -3q9 2 13 4q5 3 5 5t-5 10q-19 38 -9 57q5 10 8 13q1 0 3 1q3 1 4 2q20 6 39 25q4 4 13 19q5 9 6 13q3 11 3 16v2h-61z" />
    <glyph glyph-name="uniF122" unicode="&#xf122;" 
d="M-8 448zM271 3q-17 -2 -28 0l-3 1h-5q-27 4 -38 11q-6 5 -6 9q0 1 9 19q13 27 21 55q7 27 2 52t-25 39q-7 6 -11 7q-20 7 -38 18q-14 9 -27 20q-25 22 -40 52q-12 23 -15 48q-2 14 -1 15h2h7.5h11.5t16.5 0.5t20.5 0.5h25.5h30.5h35.5h39.5h188v-4q0 -18 -8 -40
q0 -2 -1.5 -5.5t-2.5 -5.5q-3 -8 -12 -23q-24 -37 -63 -60q-21 -13 -36 -17q-10 -3 -21 -20q-1 -2 -4 -5q-8 -11 -9 -21q-1 -5 -1 -21v-18q4 -29 22 -63l4 -8q1 -2 5 -8q4 -7 1 -11q-10 -14 -46 -17zM128 62q-14 -2 -18 -1q-20 3 -25 5q-8 4 -8 8q0 3 7 15q14 28 14 50
q0 14 -5 23q-6 11 -20 16q-18 5 -34 20q-18 16 -27 31q-11 18 -12 37v5h72l2 -3l6 -9q2 -2 5 -6.5t4 -6.5q15 -20 32 -32q22 -16 45 -25l8 -3q0 -4 -17 -9q-9 -2 -14 -10q-6 -11 -8 -22t2 -25q4 -16 12 -32q7 -12 7 -14t-8 -7q-10 -4 -20 -5zM413 63q-31 -6 -49 4q-7 3 -7 7
t6 15q14 26 15 48q0 10 -1 14q-2 12 -10 20q-3 3 -17 8q-13 3 -13 7q3 2 6 3q9 3 21 10q26 15 41 30q18 18 29 38l3 4h75v-2q0 -3 -4 -20q-3 -9 -7 -17q-10 -17 -16 -23q-23 -25 -48 -32q-2 -1 -6 -2q-1 -1 -2 -1h-1q-4 -2 -10 -16q-12 -26 11 -71q6 -12 6 -13q0 -3 -6 -6
q-8 -4 -16 -5z" />
    <glyph glyph-name="uniF123" unicode="&#xf123;" horiz-adv-x="480" 
d="M478 189q4 -6 -3 -8q-19 -4 -65 -18q7 -10 22 -30l25.5 -34t11.5 -16q4 -6 -6 -11q-4 -2 -76 -27t-80 -28q-18 -6 -26 5q-6 8 -54 95q-45 -12 -101 -26q-16 -4 -24 12q-10 20 -100 215q-8 17 7 17q3 0 47 3.5t49 3.5q10 0 16 -8l116 -194l145 35q-3 5 -24.5 35t-23.5 33
q-5 8 6 10q2 0 18.5 3t31.5 5.5t17 2.5q9 2 17 -7q19 -22 54 -68zM214 135q4 0 1 4l-108 188q-1 2 -4 2q-2 0 -41 -3l-38 -4q-2 0 0 -4q98 -196 98 -203q2 -2 5 -1q84 21 87 21zM444 92q0 1 -23.5 32.5t-24.5 33.5q-2 3 -7 2l-142 -37q44 -75 47 -80q3 -6 8 -4l35 12
q35 12 69 24t36 12q4 2 2 5zM453 192q5 2 4 4q0 1 -9.5 13t-20 25t-11.5 14q-2 3 -7 3q-1 -1 -26 -5.5t-27 -4.5q-3 0 -1 -4l43 -58q52 12 55 13z" />
    <glyph glyph-name="uniF124" unicode="&#xf124;" horiz-adv-x="501" 
d="M314 35l-55 94l166 43q5 1 8 -2q1 -1 15 -20.5t27.5 -37.5t14.5 -19q4 -4 -2 -6q-20 -8 -164 -56q-6 -2 -10 4zM501 108q-5 6 -51 69q5 1 23.5 6.5t27.5 7.5v-83zM450 279q4 1 7 -3q1 -2 9.5 -12.5t20 -25t14.5 -18.5v-9h-1l-64 -16l-50 68q-2 5 1 5q2 0 31.5 5t31.5 6z
M93 387q-16 0 -88 -7q7 19 23 35q28 28 66 28h313q39 0 67 -28q27 -27 27 -66v-106q-9 11 -21.5 26.5t-13.5 16.5q-8 10 -19 8l-78 -13q-14 -2 -8 -10q2 -3 27 -38l30 -42l-171 -41l-135 226q-7 12 -19 11zM330 5q29 9 171 61v-31q0 -39 -27 -66q-28 -28 -67 -28h-313
q-38 0 -66 28t-28 66v263q86 -186 89 -192q8 -18 29 -13q7 2 118 30q61 -109 63 -112q6 -9 13.5 -9.5t17.5 3.5zM118 119q-4 -1 -5 1l-11 21q-10 21 -24.5 52t-30.5 63.5t-29 59.5t-18 37q0 2 0.5 5.5t0.5 4.5q7 0 29 2t41 4t20 2q3 0 4 -3q125 -215 127 -219q3 -6 -1 -6
q-1 0 -25.5 -6t-50 -12t-27.5 -6z" />
    <glyph glyph-name="uniF125" unicode="&#xf125;" horiz-adv-x="466" 
d="M241 425q11 1 132 -17q38 -6 42 -7q12 -4 22 -17q8 -11 10 -48q8 -132 16 -248q3 -48 3 -58t-5 -20q-8 -18 -21 -21q-7 -2 -90.5 -16t-89.5 -14q-7 0 -13 2q-20 6 -25 28q-2 10 -3 63q-5 152 -6 186q-1 29 -2 66.5t-1.5 56t-0.5 21.5q0 32 23 41q6 2 9 2zM268 341
q-3 0 -12 -3q-11 -5 -14 -16q-1 -3 2 -95q1 -20 1.5 -47t1.5 -45t1 -24q1 -33 8 -42q9 -12 23 -12q17 0 68 6l67 8q19 5 24 22q1 6 -2 67q-6 95 -6 105q-2 41 -6 49q-5 11 -15 15q-5 3 -66 7q-17 1 -35.5 2.5t-27 2t-12.5 0.5zM143 380q12 0 30 -2l29 -3l1 -9q0 -2 0.5 -13
t0.5 -19l1 -23h-3q-1 0 -23 2q-25 2 -33 -5q-6 -6 -6.5 -16.5t0.5 -89.5q2 -94 3 -97q4 -14 13 -19q8 -3 34 -1l21 1l3 -72q-1 -1 -29 -4.5t-31 -3.5q-5 0 -9 1q-17 3 -23 19q-3 7 -6 173q-2 131 -2 146t5 23q6 8 17 11q2 1 7 1zM270 335q13 0 24 -1l26 -2l6 -131l5 -133
q-10 -1 -22 -2q-5 0 -11 -1t-10 -1.5t-5 -0.5h-8q-14 3 -19 21l-1 6q7 1 16 2q16 1 24 5q4 2 9 7q5 6 5 17t-3 78q-3 66 -4.5 78.5t-5.5 17.5q-8 10 -27 11q-22 4 -22 6q0 11 6 17t17 6zM62 326q38 0 44 -3q2 0 2 -22l1 -22l-19 1q-16 1 -23 -2q-5 -2 -7 -6l-3 -5l2 -67
q0 -9 1 -24q2 -50 7 -54t29 -3h15q1 -12 1 -26q1 -25 0 -25h-3q-3 -1 -8 -2t-9 -1q-25 -2 -33 0q-10 3 -14 14q-3 13 -5 155v76q3 16 22 16zM163 308q26 0 30 -2q5 -2 7 -110q3 -102 1 -104q-3 -3 -32 -3q-5 0 -9 2q-13 6 -12 25l1 6l9 1q15 1 22 8l4 4v63v64l-3 4
q-6 9 -24 10h-12l-1 7q-2 19 11 24l3 1h5zM23 264h6l5 -1v-12v-11h-6h-10q-6 -1 -6.5 -5.5t-0.5 -36.5t1.5 -36t13.5 -5l10 -1v-13v-14h-7h-11h-8q-5 2 -6 5q-2 3 -3 18q0 2 -0.5 23.5t-0.5 36.5v45l3 3q4 4 12 4h8zM64 262h7q11 0 15 -8q3 -4 4 -59q1 -54 -1 -57
q-5 -7 -16 -7q-5 0 -6 4q0 1 -0.5 5.5t-0.5 7.5v9h3q9 0 11 6q1 3 1 36t-2 35q-4 6 -12 6h-3v11v11z" />
    <glyph glyph-name="uniF126" unicode="&#xf126;" horiz-adv-x="331" 
d="M-8 448zM165 448q66 0 113 -22q25 -12 37 -25q11 -12 14 -31q2 -4 2 -6v-278q0 -18 -16 -36q-14 -15 -37 -26q-45 -21 -113 -21q-67 0 -112 21q-23 11 -37 26q-16 18 -16 36v278q0 19 16 37q12 13 37 25q47 22 112 22zM29 323v-237q0 -9 8 -17q10 -10 28 -19
q43 -19 100 -19q58 0 101 19q18 9 28 19q8 8 8 17v237q-10 -9 -28 -17q-47 -21 -109 -21q-61 0 -108 21q-18 8 -28 17zM157 265q45 0 67 -16q23 -16 23 -50q0 -17 -6 -30q-7 -14 -18 -21q-12 -7 -29 -12q-11 -3 -39 -3h-18v-71h-37v198q8 2 28 4q10 1 29 1zM159 233
q-16 0 -22 -1v-68h17q28 0 41 7q14 8 14 28q0 12 -4 17q-4 6 -10 10q-4 3 -16 5t-20 2z" />
    <glyph glyph-name="uniF127" unicode="&#xf127;" horiz-adv-x="389" 
d="M-8 448zM153 279l13 55l-32 -1l-12 -54q-3 -11 -8 -45q-4 -25 -5 -40h19q3 9 13 40q4 13 12 45zM129 147q2 8 -3 14q-4 6 -14 6t-17 -6q-6 -5 -8 -14t2 -14q5 -6 14 -6q8 0 17 7q8 6 9 13zM107 448h2h1h2l4 -1q0 -1 3 -2l2 -1h1v-1q43 -33 128.5 -97.5t128.5 -96.5l2 -2
q1 0 2 -3q1 0 2 -2q1 0 2 -3l1 -3l1 -3v-1v-2v-1v-2v-4l-1 -3l-1 -3l-1 -3q-1 0 -2 -2l-1 -2l-1 -1q0 -1 -3 -2q-1 -1 -2 -1v-1q-57 -33 -171 -99.5t-171 -99.5q0 -1 -3 -2l-4 -1h-1h-2h-1h-2h-4l-3 1q0 1 -3 2q0 1 -3 2l-2 2l-3 3l-1 3q-1 0 -2 3l-1 4v4v1v2l1 4l40 188
l44 206l1 4l1 3q1 0 2 3q0 1 2 3t3 2q0 1 3 2q0 1 3 2h2l1 1h1h3z" />
    <glyph glyph-name="uniF128" unicode="&#xf128;" horiz-adv-x="404" 
d="M-8 448zM66 34q-5 27 6 81q14 68 54 141q51 92 136 100q28 3 57 -8.5t43 -24.5l15 -13l-8 -11q-2 2 -6 5.5t-18 8.5t-30 3q-33 -4 -66.5 -34.5t-40.5 -83.5q-4 -35 3 -76t16 -64l9 -24h-170zM32 119l33 -2l-6 -34l-31 4zM84 190l-30 9l10 27l29 -11zM126 276l-23 15
l18 20l22 -15zM171 355l21 11l16 -17l-21 -13zM246 376l28 -1l2 -17l-26 -1zM335 356l21 -15l-4 -6l-18 10zM331 307l18 -4v-8l-18 2v10zM276 299l18 4l3 -10l-12 -10zM250 279l13 -19l-8 -14l-18 21zM224 226l19 -15l-5 -21l-22 19zM215 167l25 -12l1 -22l-27 12zM223 88
h28l12 -25l-34 2zM95 448h309v-332q0 -12 0.5 -36t0 -34t-2 -24t-5.5 -23q-9 -21 -32 -29q-21 -8 -66 -8l-293 1h-5v4q1 116 1 233q0 34 -1 74.5t-1 60.5t1 40.5t4 32.5q8 26 28 34q15 6 62 6zM95 438q-46 0 -58 -5q-17 -7 -23 -28q-4 -14 -4.5 -36.5t0.5 -77.5t1 -91v-67
t-0.5 -62t-0.5 -49v-35.5v-14.5h20.5h51t67.5 -0.5t77 -0.5h73q41 0 63 8q18 6 26 24q4 8 5.5 20.5t1.5 23t-0.5 33.5t-0.5 36v322h-299z" />
    <glyph glyph-name="uniF129" unicode="&#xf129;" horiz-adv-x="398" 
d="M-8 448zM43 60h24q36 0 36 -26q0 -11 -4.5 -17t-8.5 -7h-5l24 -24h-30l-17 18v-20h-19v76zM63 39v-13h16v13h-16zM146 59h4q29 0 29 -18v-54h-19v12h-20v-13h-19v53q0 20 25 20zM141 40v-20h18v20h-18zM199 59h20v-72h-20v72zM241 58l20 1v-54h29v-19h-49v72zM355 59v-20
h-33v-7h14q23 0 23 -22q0 -16 -7 -20t-25 -4h-26v17h30q9 0 9 6q0 3 -14 3q-26 0 -26 23q0 24 26 24h29zM61 81q-5 27 6 81q13 63 54 141q48 90 135 98q28 3 56.5 -8.5t43.5 -24.5l14 -12l-8 -11q-2 2 -6 5.5t-18 8.5t-30 3q-33 -4 -66 -34t-40 -83q-4 -35 3 -76t16 -65
l9 -23h-169zM27 166l33 -2l-6 -33l-31 3zM79 236l-30 10l10 27l29 -12zM120 322l-23 15l18 20l23 -15zM166 401l21 10l15 -17l-21 -12zM240 422l28 -2l2 -16l-26 -1zM329 402l21 -15l-4 -6l-18 9zM325 353l17 -4v-8l-17 2v10zM270 345l18 4l2 -10l-12 -10zM244 325l13 -19
l-8 -14l-18 21zM218 272l19 -14l-5 -21l-22 18zM210 214l24 -13l1 -21l-27 12zM217 135h28l12 -25l-33 2zM94 448h303v-5v-344q0 -12 0.5 -38t0 -36.5t-2 -25t-5.5 -24.5q-9 -22 -31 -30q-24 -9 -65 -9l-288 1h-5v5q1 122 1 245q0 35 -1 78t-1 64.5t1 42.5t4 34q6 25 28 35
q16 7 61 7zM94 438q-43 0 -57 -6q-16 -7 -22 -29q-3 -12 -4 -33t-1 -40.5t0.5 -64.5t0.5 -78v-240h20.5t50 -0.5t66 -0.5h75.5h71q42 0 61 8t26 25q3 7 4.5 15.5t1.5 21v22.5v29.5v31.5v339h-293z" />
    <glyph glyph-name="uniF12A" unicode="&#xf12a;" horiz-adv-x="330" 
d="M0 304q0 -7 2 -21t26 -56.5t68 -85.5q114 -111 104 -162h71v12.5t-4.5 31t-14 45.5t-32 50.5t-53.5 50.5q-75 69 -88 122q-39 0 -64 20q-15 8 -15 -7v0zM152 149q26 -20 49 -46l33 33q44 43 68 84t26 61l2 20q0 7 -4 9t-8 0l-3 -1q-11 -9 -27 -14.5t-26 -6.5l-11 -2
q-6 -24 -28 -55t-41 -50l-20 -19q-2 -1 -7 -5.5t-8 -5.5l5 -2v0zM152 45q-33 38 -53 58q-20 -29 -31 -62t-12 -51v-19h71q0 35 25 74v0zM129 283h72l2 1q2 0 4 -2.5t1 -8.5q-1 -8 -11 -21t-19 -22l-10 -10q-28 26 -41 51q-2 0 -3.5 3t-0.5 6t6 3v0zM289 357
q0 -13 -8.5 -21.5t-21.5 -8.5t-21.5 8.5t-8.5 21.5t8.5 21.5t21.5 8.5q13 2 21.5 -7t8.5 -23v0zM107 357q0 -13 -8.5 -21.5t-22.5 -8.5t-22 8.5t-8 21.5t8 21.5t22 8.5t22.5 -8.5t8.5 -21.5v0zM201 382q0 -13 -8.5 -21.5t-22.5 -8.5t-22 8t-8 22t8.5 22.5t21.5 8.5
q12 0 21.5 -9t9.5 -22v0z" />
    <glyph glyph-name="uniF12B" unicode="&#xf12b;" horiz-adv-x="492" 
d="M247 105h-28v138h28v-138zM295 216v-43h35q12 0 12 17v13q0 13 -12 13h-35zM352 105l-28 45h-27v-45h-29v138h30h44q12 0 19.5 -7.5t7.5 -19.5v-35q0 -22 -18 -29l33 -47h-32zM492 105h-29l-9 28h-34l11 24h16l-16 55l-32 -107h-28l41 138h10h19h10zM197 134v108h-27
v-102q0 -13 -10 -18l-10 -2l7 -24q20 1 30 10.5t10 18.5v9v0zM0 242q-1 -28 41 -69q47 -46 43 -68h30q0 5 -0.5 14t-11.5 30t-32 36q-32 29 -37 51q-16 0 -27 9q-6 3 -6 -3v0zM64 177q8 -5 20 -20l14 14q19 18 29 35.5t11 25.5l1 9l-7 3q-5 -4 -11.5 -6.5t-10.5 -3.5h-4
q-2 -10 -11.5 -23t-18.5 -21l-8 -8q-1 -1 -3 -2.5t-3 -1.5l2 -1v0zM64 133q-10 12 -22 24q-8 -12 -13 -26t-5 -21l-1 -8h30q0 14 11 31v0zM54 233h30l3 -1v-3q0 -3 -4.5 -9t-8.5 -10l-4 -4q-12 11 -17 22l-1 4l2 1v0zM122 264q0 -13 -13 -13t-13 13t13 13q5 1 9 -3.5t4 -9.5
v0zM45 264q0 -13 -13 -13t-13 13t13 13t13 -13v0zM84 275q0 -13 -13 -13q-12 0 -12 13t12 13q5 0 9 -4t4 -9v0z" />
    <glyph glyph-name="uniF12C" unicode="&#xf12c;" horiz-adv-x="459" 
d="M0 354l226 81l233 -79l-38 -299l-195 -108l-192 106zM226 379l-141 -314l53 1l28 71h60h67l31 -72l50 -1zM227 278l48 -99h-46h-2h-41z" />
    <glyph glyph-name="uniF12D" unicode="&#xf12d;" horiz-adv-x="414" 
d="M207 331v-80l-138 -81v-116l138 79v-79l-207 -118v276l207 119v0zM414 448v-236l-68 39l-1 78l-69 -38l-69 40zM207 54v79l138 -78v116l-138 80v80l207 -119v-276zM138 291l-69 39v-79l-69 -39v236q141 -79 207 -117zM106 192l101 -59l-69 -39l-69 39v37zM207 133l102 59
l36 -21v-38l-68 -39z" />
    <glyph glyph-name="uniF12E" unicode="&#xf12e;" horiz-adv-x="455" 
d="M454 93v0q0 -4 -36.5 32.5t-73.5 74.5l-36 38h3q143 -137 143 -139v-6zM148 140v0q1 2 19.5 -14t35.5 -34t15 -21l-1 -1l-2 -1q-2 -4 -20 11t-34.5 34t-14.5 24l1 1zM245 46v0q3 -1 21 -19t34 -35t16 -18h-7l-67 68zM455 100q-2 -52 -40.5 -88.5t-90.5 -36.5h-9l-71 70
q2 5 7.5 13t8.5 12h64q15 0 26 11t11 26t-11 25.5t-26 10.5h-37q4 20 4 47q0 16 -4 48h23l145 -143v5v0zM38 405v0q89 0 152.5 -63.5t62.5 -151.5q0 -64 -36 -120l-70 69q12 27 12 51q0 50 -35.5 85t-85.5 35h-38v95h38zM324 405v0q54 0 92.5 -38.5t38.5 -91.5
q0 -49 -30 -84q30 -36 30 -84q0 -2 -0.5 -6t-0.5 -6l-145 143h15q15 0 26 10.5t11 25.5t-11 25.5t-26 10.5h-64q-32 59 -90 95h154zM315 -25h-144q44 27 73 70zM218 70v0q-29 -44 -76.5 -70t-103.5 -27h-38v95h38q36 0 66 19.5t44 51.5z" />
    <glyph glyph-name="uniF12F" unicode="&#xf12f;" horiz-adv-x="431" 
d="M306 137v0v0zM306 137v0v0zM280 365q18 2 42 19.5t34 14.5q-17 -11 -48 -56q-4 -6 -23 11q-11 10 -5 11v0zM332 296h1q8 2 11 4l2 1q10 3 8 13l-1 10h-10h-4q-3 -1 -5 -1q-1 0 -4 0.5t-4 1.5q-2 1 -5 1h-12v-12q0 -5 10 -13q6 -5 13 -5v0zM293 34v38h-44v-38h44zM306 137
v0v0zM306 137v0v0zM338 105q-8 17 -18 30q-1 1 -3 3.5t-3 3.5l-1 1h-1v1l-1 1h-2q-2 1 -5 1q-12 2 -17 2q-23 0 -34 -1q-21 -1 -68 -5q-24 -2 -34 -4q-3 0 -8.5 -1t-8.5 -2q-2 -1 -5 -1t-4 -1l-4 -2q-1 0 -2 -1t-2 -1l-2 -2q-2 -2 -4 -6q-1 -1 -2.5 -3.5t-1.5 -3.5l-7 -14
q-1 -2 -3 -6.5t-3 -7.5q0 -1 -1 -3.5t-1 -3.5v-1l-1 -2l-1 -2v-1l1 -1h1h10v1q0 1 1 2t2 3.5t1 3.5l2.5 7.5t2.5 6.5t2.5 6.5t2.5 6.5q1 1 2.5 3t1.5 3l3 6h1l1 1h1l2 1q1 1 4 1.5t4 0.5q5 1 17 3q11 2 33 4q65 6 67 6h34q11 0 16 -1h3l1 -1l1 -1q1 -1 2.5 -3t2.5 -3
q7 -8 17 -28q6 -14 9 -28h9q-2 10 -4 16t-6 16v0zM373 114q0 10 -10 12t-13 -3q-7 -14 -26 -15q-2 0 -2 -2t2 -2q23 1 30 16q3 3 10 0q4 -1 4 -6q1 -12 -17 -42h6q17 29 16 42v0zM341 133q-1 -9 11.5 -18t24.5 -9q10 0 19 4.5t7 10.5q-1 3 -4.5 4t-6.5 0l-4 -1l4 4q3 5 5 9
t-1 8q-4 4 -11 -1.5t-8 -5.5t-1.5 8.5t-6.5 9.5q-5 0 -7.5 -5t-3.5 -10.5t-2 -5.5v0q-1 0 -3.5 0.5l-5 1t-4.5 -0.5t-2 -3zM345 133l2 -1h4h5q4 0 5.5 3.5t2 7.5t1.5 6.5t4 2.5q2 0 1.5 -7.5t4.5 -9.5t10.5 3.5t7.5 3.5q3 -3 -3 -9t-5 -10t8 -2.5t7 -0.5q1 -3 -6.5 -7
t-16.5 -4q-11 0 -22 8.5t-10 15.5zM372 145q0 -11 3 -12q6 -1 10 6q-5 -5 -9 -4q-4 3 -4 10v0zM387 128q-6 -7 0 -9q5 -1 7 3q-9 0 -9 1q-1 2 2 5v0zM280 365q18 2 42 19.5t34 14.5q-17 -11 -48 -56q-4 -6 -23 11q-11 10 -5 11v0zM280 368q-5 0 -5 -5q1 -6 15.5 -17.5
t19.5 -4.5q31 46 48 55l5 4l-6 1q-12 3 -36.5 -14.5t-40.5 -18.5zM281 362q19 2 40.5 17.5t26.5 16.5q-17 -15 -42 -51q-4 -1 -13 5.5t-12 11.5zM61 374l-4 -4l5 1q19 2 42.5 -9.5t27.5 -11.5q11 0 21.5 7t7.5 14q-1 2 -6.5 2h-13.5t-12 2q-48 17 -68 -1zM68 375
q20 11 60 -3q7 -2 18 -2l12 -1q1 -3 -8 -9.5t-18 -6.5q-3 0 -25 11.5t-39 10.5zM304 349q-4 0 -4 -4q-1 -10 5 -25.5t18 -14.5q13 1 34 27t19 46q-2 16 -19 23q-10 4 -31 -24t-22 -28zM304 346q6 0 25.5 27t26.5 24q14 -5 16 -19q2 -19 -18 -43.5t-31 -25.5
q-10 -1 -15.5 14.5t-3.5 22.5zM133 356q-3 -1 -20 8.5t-31.5 13t-27.5 -10.5q-10 -16 11.5 -40.5t43.5 -27.5q18 -3 26 21t3 34q-3 3 -5 2zM134 353q4 -9 -2.5 -31.5t-21.5 -19.5q-21 3 -41.5 26.5t-11.5 36.5q13 13 25 8.5t29 -13.5t23 -7zM96 283q1 2 1 7t1 7q0 3 1 4t1 3
q0 1 1 3.5t2 3.5q8 18 14 26q12 16 19 22q7 7 25 15q12 5 28 7q10 1 29 1q8 0 28 -2q16 -2 29 -6q3 -1 7.5 -3.5t5.5 -3.5q6 -3 12 -9q4 -3 10 -11q1 -1 6 -14q2 -6 4 -14q2 -10 3 -14q1 -1 1 -3.5t1 -3.5t1 -3t1 -3q1 -2 2.5 -7t2.5 -7q14 -42 16 -55q3 -14 3 -29
q0 -16 -4 -28q-1 -1 -1 -3.5t-1 -3.5t-2 -3.5t-1 -3.5q0 -2 -1 -3l-1 -1q0 -2 -1 -2q-1 -2 -5 -6q-9 -11 -22 -18q-9 -5 -27 -11q-9 -3 -29 -7q-10 -2 -28 -4q-2 0 -7 -1t-8 -1h-7q-1 0 -3.5 -0.5t-3.5 -0.5q-26 -1 -58 7q-18 6 -27 10q-12 6 -26 14l-12 9q0 1 -1 1t-2 1
l-1 1q0 2 -1 2q-4 4 -5 6q-9 13 -11 28q-3 13 3 30q5 16 11 27l15 24q1 2 3.5 6t3.5 6q4 10 5 14zM103 281q-1 -3 -6 -14q-1 -2 -3.5 -6t-3.5 -6q-7 -12 -14 -25q-10 -20 -11 -25q-4 -18 -3 -27q1 -10 11 -24q1 -1 2 -2.5t2 -2.5l1 -1q0 -2 1 -2t1 -1l2 -1q3 -3 11 -9
q13 -8 24 -13q13 -6 27 -9q3 -1 8.5 -2.5t10 -2.5t8.5 -1q9 -1 28 -1h7l7 1q4 0 14 2q1 0 12 1t16 2t14.5 3t13.5 3q11 3 26 9q14 7 23 16l5 5q1 0 1 1t1 2l2 2q1 1 4 7q1 1 1 3t1 3q3 16 2 29q-2 20 -4 28q-4 18 -18 54q-1 2 -3 6.5t-3 6.5l-2 6q-1 1 -2 3.5t-1 3.5l-3 15
q-1 3 -2.5 7t-1.5 6q-5 15 -14 23q-7 7 -23 14q-9 4 -27 8q-5 1 -16 2t-12 1q-19 0 -28 -1q-16 -2 -28 -7q-11 -5 -23 -15q-10 -9 -17 -22q-4 -8 -10 -26q-1 -1 -1 -3.5v-3.5v-1l-1 -2l-1 -1v-1v-2l-3 -6q0 -3 -2 -7zM222 250q0 -5 -12 -5q-11 0 -11 5t11 5q12 0 12 -5v0z
M201 265q2 1 9.5 1t9.5 -2q7 -7 1 -12q-1 0 -2 1q-1 2 -3 1t-3 -3.5t-2 -2.5q-3 0 -3 3.5t-2 3.5q-2 1 -3.5 -1t-2.5 -2q-4 1 -3 6t4 7v0zM209 266q9 0 11 -2q8 -8 1 -12h-1l-1 2q-1 1 -2 1h-1q-2 -1 -3 -4t-2 -3q-3 0 -3 3.5t-2 3.5h-1q-2 0 -3 -1l-2 -1q-4 1 -3 5.5t4 6.5
q1 1 8 1zM209 265q8 0 10 -2q3 -3 3 -8q0 -1 -1 -2h-1l-1 1q-1 2 -2 2l-1 -1q-2 -1 -4 -4q0 -2 -1 -2q-2 0 -2 2q0 4 -3 5h-1q-2 0 -4 -2l-1 -1q-2 0 -2 2q-3 5 3 8q2 2 8 2v0zM170 166l-3 8l-3 9q-5 16 -6 17q-4 8 -11 14q-5 5 -15 7v0q-3 2 -2 4q2 3 4 3q22 -5 40 -5
q27 0 40 2q26 4 39 7t39 11q2 1 4 -2q2 -1 -1 -4v0q-1 0 -2 -1q-1 0 -1 -1v-1l-1 -2q-1 -2 -2 -2l-6 -9q-8 -12 -11 -18q-2 -3 -5.5 -9.5t-4.5 -9.5q-2 -3 -4 -9q0 -1 -1 -2.5t-1 -2.5v-1q-1 -1 -1 -2v0v-1h-1l-1 -1q-1 -1 -5.5 -2t-5.5 -1q-3 -1 -10 -1q-14 -2 -21 -2
l-11 -1q-10 0 -10 1q-5 0 -11 2q-1 1 -2.5 1t-2.5 1q-2 1 -4 3zM170 166q2 -2 4 -3q1 -1 2.5 -1t2.5 -1q3 -1 11 -1q0 -1 10 0h11q7 0 21 2q2 0 5 1t5 1q1 0 5 1t5 2l1 1h1v3q0 1 1 2.5t1 2.5l2.5 5t1.5 5q3 7 9 19q1 3 4 9.5t5 9.5q1 1 3 4.5t3 5.5t3 4q1 0 1 1v2l2 2l4 -6
q-23 -7 -40 -11q-15 -3 -40 -7q-14 -2 -41 -2q-18 0 -41 5l2 7q14 -9 16 -12q6 -8 9 -16q4 -13 5 -17l3 -9l3 -9v0zM217 201q12 0 23 -4t16.5 -8t4.5 -6q0 -1 -2.5 -7t-4.5 -10q-1 -2 -18.5 -5.5t-34.5 -3.5q-24 0 -31 7q-2 2 2.5 10.5t15.5 17t25 9.5h4zM217 198
q11 0 21 -3t15 -6t6 -5l-1 -1v-2t-2.5 -6t-3.5 -8q-14 -7 -51 -7q-23 0 -29 6q0 3 6 12q13 19 35 20h4v0zM183 217q1 -2 3.5 -10t4.5 -15t3 -7q14 -7 19 -4q1 0 2 3t2 2q1 0 2 -2t2 -1q12 8 14 10q2 6 0 29q-4 -2 -23.5 -4t-28.5 -1v0zM187 204q-1 6 20 9.5t29 2.5v6
q-5 -3 -27 -5.5t-26 -0.5q2 -2 4 -12v0zM209 212q1 -1 2 -3.5t1 -3.5t1 -3t1 -3l2 -6l2 -7l-3 -1l-2 7l-1 6q0 1 -1 3.5t-1 3.5t-1 3t-1 3zM349 314q2 0 4 -3.5t2 -7.5t-1 -6q-1 -1 -3.5 -2.5t-5.5 -3t-4 -2.5t-5.5 -10t-10.5 -20t-10 -16q-7 -8 -36.5 -5t-37.5 11
q-5 5 -10 27t-11 26q-1 1 -13 1q-2 0 -5.5 -10t-9 -22.5t-13.5 -18.5q-5 -4 -29 -5.5t-40 7.5q-14 11 -24 53q-1 2 -5.5 5t-4.5 4q-1 2 -0.5 8t3.5 6q1 0 9 -1.5t12 -0.5q20 3 37.5 3.5t29 -1t19 -3t12.5 -3.5l6 -2q11 -2 19 -1q17 3 32.5 3.5t25.5 -0.5t19.5 -3t14 -3.5
t9.5 -3.5l5 -2q4 -1 20 2zM169 264q8 5 15.5 21.5t4.5 19.5q-4 6 -27.5 9.5t-45.5 -0.5q-7 -2 -11 -8q-1 -2 -1 -9.5t3 -18t9 -14.5q7 -4 27 -3.5t26 3.5zM307 252q6 3 10 13t5.5 18.5t0.5 9.5q-4 6 -10 8q-22 7 -45 6.5t-28 -5.5q-3 -3 1.5 -20t12.5 -23q6 -4 26.5 -7
t26.5 0zM148 287q-1 -5 -3.5 -8.5t-4.5 -2.5q-7 2 -5 13q1 5 3.5 9t4.5 3q7 -2 5 -14v0zM289 279q2 -13 -4 -13t-8 12q-2 13 5 13q5 0 7 -12v0zM321 314l11 -7q1 0 11 5q-5 -3 -10 -1q-6 0 -12 3v0zM147 296q0 -2 -2 -2t-2 2t2 2t2 -2v0zM287 288q0 -2 -2 -2t-2 2t2 2t2 -2
v0zM338 305q0 -1 -6 -1t-6 1t6 1l6 -1v0zM99 320q0 -2 -7 0l-5 2q0 2 6 0q6 0 6 -2v0zM298 30q-2 7 5 21q3 6 6.5 7.5t4.5 -0.5l2 -1q6 -7 -1 -17q-3 -4 -7.5 -6.5t-7.5 -3.5h-2zM241 21q-4 -10 -11.5 -13.5t-13.5 -1.5l-5 1q-2 9 5 31q3 10 8.5 13t9.5 1l4 -1q1 -1 2.5 -3
t3.5 -9.5t-3 -17.5zM225 114l10 19q5 5 6 -2t-5.5 -23.5t-13.5 -29.5l-8 -12zM41 30q0 10 4.5 18t8.5 9.5t7 -0.5q4 -4 2 -10.5t-9 -10.5zM431 34q0 3 -2 4.5t-3 1.5l-2 -1q-1 -1 -3 -2.5t-7.5 -3.5t-9.5 -2t-5.5 5.5t-0.5 11.5v5q1 18 -4 20q-3 1 -6 -0.5t-4 -2.5l-2 -2
q-8 -9 -12 -21h-1q1 21 0 26q-1 2 -6.5 1.5t-6.5 -3.5q-7 -15 -10 -46q-15 -13 -29 -15q-6 -1 -10.5 0.5t-5.5 3.5l-1 2q4 1 10 3.5t16 13t10 23.5t-8.5 17.5t-15 2.5t-9.5 -4q-20 -14 -25 -40l-1 -5q-14 -10 -22 -12q22 37 -5 54q-6 3 -11 1t-8 -6l-3 -3l10 12.5t14.5 27.5
t4.5 36q-5 21 -20 15l-16 -11q-15 -22 -18 -54l-9 -70q-7 -8 -13 -8q-3 0 -4 5t-1 10l1 5q5 30 5 35q0 8 -7 10q-3 1 -6 -0.5t-5 -3.5l-1 -2q-18 -26 -19 -30l-1 -2l-1 1l6 26q-1 9 -5 10q-5 0 -10 -3t-7 -6l-3 -3q-12 -23 -13 -25l-1 1l4 32q0 3 -2 4t-3 1h-2q-7 1 -9 -4
q-8 -21 -11 -48q-19 -13 -31 -13q-5 0 -8 2t-3 4v2q5 2 12 5t16.5 15t4.5 26q-8 11 -21 11q-19 0 -28 -23q-5 -10 -5 -21q-9 -2 -13 2h-7q-7 -11 0 -14l19 -5q2 -11 13 -19q8 -4 16.5 -4t16.5 2l7 3l11 7q0 -10 8 -11q6 -1 10 4t14 29l9 16h1l-4 -41q1 -4 4 -6t6 -2h3h1
l1.5 0.5t2.5 1.5t2.5 4.5t2.5 7.5l13 33h1q-4 -33 2 -43q3 -4 8 -5t9 0l4 2q10 5 12 7q1 -1 3.5 -2.5t10.5 -4t16 -1.5q17 4 30.5 8.5t17.5 6.5l5 3q7 -17 28 -19q11 -1 20 2.5t13 7.5l4 4q0 -11 8 -14q4 -1 7.5 2.5t4.5 7.5l2 5l14 38h2q0 -24 14 -28q6 -2 14 0.5t13 6.5
l5 3l3 9v0z" />
    <glyph glyph-name="uniF130" unicode="&#xf130;" 
d="M0 448h512v-512h-512v512zM282 357q-22 -33 -6 -70t56 -52l1 -1h2h1h2q2 -1 3 -1q15 -2 26 -2.5t21 3.5t16 7.5t11.5 9.5t8 9.5t5.5 8.5l3 5q-23 -33 -77 -20q-2 0 -4.5 1t-3.5 1t-4 2t-5 2q-12 6 -17 10q-24 18 -33 46t4 55zM227 17q47 -8 82.5 -1.5t59 22.5t38 32.5
t20.5 29.5l6 13q-28 -37 -76.5 -49.5t-96.5 0.5q-1 0 -3.5 1t-3.5 1t-1 0.5t-1 0.5q-1 1 -3.5 1t-3.5 1h-1q-1 1 -3 1t-3 1q-1 0 -1 0.5t-1 0.5t-3.5 1t-3.5 2l-1 1q-1 0 -3 1t-3 1h-1v1q0 1 -2 1t-3 1l-1 1q-2 0 -2 1q-1 1 -2.5 2t-2.5 1t-1 0.5t-1 0.5q-1 1 -3 2t-3 2
q-1 0 -1 0.5t-1 0.5t-2.5 1t-2.5 2l-1 1h-1q-1 0 -2 2t-2 2h-1q-1 0 -1 1t-2 2l-2 1l-1 1l-1 1q-1 0 -2.5 2t-2.5 2l-1 1l-5 5q-1 1 -2 1l-4 4l-1 1l-5 5v1l-5 5l-1 2l-4 4q0 1 -0.5 1t-0.5 1t-2 2.5t-2 2.5q-28 38 -34.5 84t13.5 90l-25 -33q-24 -34 -24 -76.5t20 -82.5
q0 -1 1 -2l1 -2v-1l1 -1l1 -1v-1l1 -2q1 0 2 -2l1 -2v-1l1 -1q1 0 2 -2l1 -2v-1l1 -1q0 -1 1.5 -3t2.5 -3l1 -1q0 -1 1 -2.5t2 -2.5l1 -1l1 -1q1 -1 3 -4q1 0 1 -1q1 -1 2.5 -3t2.5 -3h1q1 -1 2 -2.5t2 -2.5l2 -2l4 -4h1v-1q1 -1 3 -2.5t3 -2.5l1 -1l2 -2l2 -2l1 -1h1
q1 0 2 -1l2 -2l2 -2q1 -1 5 -3q0 -1 1 -1l1 -1q1 -1 4 -3l1 -1h1q1 0 3.5 -1.5t3.5 -2.5q1 0 1 -0.5t1 -0.5q1 -1 2.5 -2t2.5 -1q1 -1 3 -1l1 -1q2 0 2 -1l1 -1h2l6 -3l1 -1q1 0 3.5 -1t3.5 -1h1v-1q1 -1 3.5 -1t3.5 -1v-1q1 0 3.5 -1t3.5 -1h1l1 -1q4 -2 7 -2zM291 132
q34 -6 62.5 0t44 17.5t26.5 24.5t14 22l4 10q-20 -28 -54.5 -39.5t-73.5 -1.5q-1 1 -3.5 1t-3.5 1q-1 0 -1 0.5t-1 0.5t-2.5 1t-2.5 1h-2q-1 0 -2.5 1t-2.5 2h-2l-6 3q-1 0 -1 1l-2 1h-1l-1 1q0 1 -2 1t-2 1l-1 1q-1 0 -2.5 1t-2.5 2t-2 1l-1 1q-1 1 -2 1q-1 1 -3.5 2
t-3.5 2l-1 2q-36 28 -50 71q-15 50 8 89l-19 -27q-18 -25 -18.5 -58t14.5 -59q1 -2 11 -17q1 -2 3.5 -5t4.5 -5.5t4 -4.5q1 -1 2.5 -3t2.5 -3l2 -1l5 -5v-1q1 -1 3.5 -2.5t3.5 -2.5l1 -1q1 -1 3.5 -2.5t3.5 -2.5l1 -1q1 -1 2 -1l1 -1q1 -1 2.5 -2t2.5 -1h1q1 -1 4 -3l1 -1h1
h1q1 0 2 -1v-1q1 0 3.5 -1t3.5 -1l1 -1q1 -1 2.5 -1t2.5 -1l1 -1h2l4 -2h3q4 -2 7 -2z" />
    <glyph glyph-name="uniF131" unicode="&#xf131;" horiz-adv-x="508" 
d="M32 322q-32 -52 -32 -107.5t27 -110.5q1 -1 2 -2.5t1 -2.5v-1q0 -2 1 -2h1v-1t1 -2l1 -2q0 -1 1 -2.5t2 -2.5q1 0 1 -1t1 -2t2 -3t2 -3l1 -1q0 -2 1 -2q1 -2 2.5 -4t2.5 -4l1 -1q1 -1 2.5 -3.5t2.5 -3.5l2 -2q1 -1 2.5 -3t2.5 -3l2 -2q1 -1 3 -3.5t3 -3.5v-1l7 -7l2 -2
l5 -5q1 0 1 -1l2 -1l7 -7l1 -1q1 -1 3.5 -2.5t3.5 -2.5l2 -2l3 -3t3 -2t1 -1l2 -1q1 -1 3 -2t3 -2l2 -2h1q1 0 3 -1.5t3 -2.5l2 -2l9 -6q1 -1 3 -1q1 -1 3.5 -2t3.5 -2q0 -1 2 -1t2 -1q1 -1 2.5 -2t2.5 -1h1h1l1 -1q1 -1 3.5 -2t4.5 -2l1 -1h1l9 -3q1 0 1 -0.5t1 -0.5l9 -3
l1 -1q1 0 4.5 -1t5.5 -2q1 0 1 -0.5t1 -0.5t4.5 -1t5.5 -2q65 -10 112.5 -1.5t79.5 30.5t51.5 44.5t27.5 39.5l9 18q-38 -50 -102 -66.5t-134 -0.5q-2 1 -5 2t-5 1q-1 0 -1 0.5t-1 0.5q-1 1 -4.5 2t-5.5 1h-1l-9 3q-1 0 -1 0.5t-1 0.5q-2 0 -5 2t-4 2h-1l-1 1l-4 2t-4 1h-1
l-1 1q-1 0 -3 1.5t-3 2.5q0 1 -2 1t-2 1q-1 1 -3.5 2.5t-3.5 1.5t-1 0.5t-1 0.5q-2 1 -5 3t-5 3h-1l-1 1q-4 2 -7 5h-1l-1 1q-2 1 -6 5l-1 1q-1 1 -2 1q-4 2 -6 4l-2 2q-1 1 -3.5 3t-3.5 3l-1 1l-7 7l-2 2q-1 1 -3 2.5t-3 2.5l-2 2q-1 1 -3 3.5t-3 3.5h-1q-2 2 -6 8l-2 2
l-5 5v1q0 2 -1 2q-1 1 -3 3.5t-3 3.5q-39 53 -47.5 115t19.5 122zM172 376q-24 -34 -25 -78.5t19 -80.5q2 -4 4.5 -8t5.5 -8.5l5 -7.5q10 -14 17 -21q3 -4 7 -7l2 -2q1 -1 2 -2.5t2.5 -2.5t2.5 -2h1q2 -1 4.5 -4t3.5 -4h1l1 -1q1 -1 4 -3.5t5 -3.5h1q1 -1 4 -3q1 0 1 -0.5
t1 -0.5t3 -2t3 -2l1 -1l6 -3h1q1 -1 2 -1q1 -1 2 -1t2 -1v-1q1 0 4 -2t5 -2h2q1 0 3.5 -1t3.5 -2q1 0 3 -1q1 0 3.5 -1t3.5 -2q1 0 3 -1q1 0 4 -1t5 -1q50 -7 86 0t59.5 23.5t37 34t18.5 30.5l6 13q-27 -38 -74.5 -54t-100.5 -2q-1 1 -5 2t-5 1t-1 0.5t-1 0.5q-1 1 -3.5 1
t-3.5 1l-1 1q-1 1 -2 1q-1 1 -3.5 1t-3.5 1l-1 1h-1q-1 0 -4 2t-5 2q-1 1 -4 3q-1 0 -3 1q-1 0 -2.5 1t-2.5 2l-2 1q-1 0 -3 1.5t-3 2.5q-1 0 -1 0.5t-1 0.5q-1 1 -3 2l-2 1q-1 1 -4 3.5t-5 3.5l-1 1h-1q-50 39 -68 98q-21 69 11 122zM289 417q-30 -44 -8 -95q22 -52 77 -71
q1 -1 4 -1h1l1 -1q4 -2 6 -2q22 -7 41 -2.5t30.5 7.5t22.5 13.5t15.5 16t9.5 14.5l5 9q-32 -47 -104 -29q-2 1 -6 2.5t-5 1.5q-2 1 -6.5 2.5t-6.5 2.5q-11 6 -23 14q-33 25 -45 63t6 75z" />
    <glyph glyph-name="uniF132" unicode="&#xf132;" horiz-adv-x="508" 
d="M418 271q42 -15 66.5 -36t23.5 -45q0 -24 -26 -46t-70 -36q-2 0 -5 -1t-5 -2q2 -10 3 -14q20 -97 -24 -122q-42 -23 -112 37q-2 2 -7 6.5t-7 6.5q-1 -1 -5 -4.5t-6 -4.5q-74 -64 -117 -40t-25 115q0 3 2 9l3 9q-3 1 -7.5 3t-6.5 2q-42 14 -67.5 36.5t-25.5 45.5t24 43.5
t65 35.5q3 1 9.5 3t9.5 3q-4 12 -5 17q-18 95 24 118q44 25 119 -42q6 -4 9 -7q5 5 13 11q73 61 113 39q21 -11 27 -45t-4 -79q0 -3 -2 -11q2 -1 8 -2.5t8 -2.5zM283 356q-10 -8 -12 -10q21 -22 43 -54q39 -3 68 -10q0 2 1 5t1 4q8 39 4 66.5t-17 35.5q-27 17 -88 -37z
M163 192q3 -8 11.5 -22.5t10.5 -19.5q8 -16 24 -39q15 -1 46 -1q17 0 47 2q16 23 24 39q22 40 22 41q-3 5 -11 19t-12 22q-8 16 -24 39q-30 2 -46 2t-46 -2q-16 -23 -24 -39v0q-22 -40 -22 -41zM151 166q-3 -7 -8.5 -21.5t-8.5 -22.5q30 -6 47 -8q-3 4 -8.5 13t-7.5 13
q-2 5 -7 13.5t-7 12.5zM151 217q1 2 14 25q2 4 7.5 13t8.5 13q-9 -1 -46 -8q3 -10 16 -43zM345 140q-1 -3 -3.5 -6.5t-4 -6.5l-3.5 -7t-4 -7q5 1 47 9q-2 8 -9.5 24.5t-8.5 19.5l-6.5 -13t-7.5 -13zM359 217q16 42 16 43q-21 6 -45 9q2 -5 8 -14.5t7 -11.5q2 -4 7 -12.5
t7 -13.5zM255 331q-20 -24 -30 -37q10 1 30 1q5 0 15 -0.5t15 -0.5q-13 19 -30 37zM139 393q-12 -8 -16 -33t3 -62q0 -3 1 -8t2 -8q26 6 67 10q35 45 44 54l-7 7q-29 26 -55 37t-39 3zM114 127q9 31 25 64q-16 33 -25 64q-9 -2 -17 -5q-34 -12 -54 -28t-20 -30q0 -13 20 -30
t58 -31q3 -1 13 -4zM231 28l10 10q-21 21 -44 54q-38 3 -68 9q-2 -12 -3 -17q-14 -75 14 -93q10 -6 35 2q25 7 56 35zM256 52q10 11 30 37q-22 -2 -31 -2q-6 0 -15.5 1t-14.5 1q2 -2 13.5 -16.5t17.5 -20.5zM387 22q6 28 -3 67l-3 12q-27 -7 -68 -10q-20 -29 -43 -55
q5 -5 13 -11q61 -51 87 -35q13 9 17 32zM406 130q37 12 59 29.5t22 32.5q0 14 -20.5 30.5t-54.5 28.5q-1 0 -6.5 1.5t-8.5 2.5q-9 -28 -25 -63q17 -34 26 -64q2 0 8 2zM255 238q19 0 32 -13t13 -32t-13 -32t-32 -13t-32 13t-13 32t13 32t32 13v0z" />
    <glyph glyph-name="uniF133" unicode="&#xf133;" horiz-adv-x="374" 
d="M-8 448zM266 291q0 2 -1 6t-5 13.5t-10 17.5t-18 14t-28 7q-41 1 -63 -27.5t-22 -77.5t23 -80.5t63 -31.5q24 0 39.5 15.5t18.5 30.5l3 16l104 -6q1 -6 0.5 -17t-9.5 -37.5t-29 -45.5q-51 -50 -134 -50q-26 0 -42.5 1.5t-45 13.5t-51.5 36q-59 60 -59 150q0 107 69 163
q56 46 123 46q48 0 84.5 -16.5t54 -39.5t28.5 -46t13 -40l2 -16z" />
    <glyph glyph-name="uniF134" unicode="&#xf134;" 
d="M-8 448zM313 404v-55q-29 26 -57 37q-30 12 -63 12q-66 0 -102 -41t-36 -117q0 -77 36 -118q36 -40 102 -40q33 0 63 12q28 11 57 37v-55q-30 -20 -58 -28q-33 -10 -65 -10q-88 0 -139 54t-51 148q0 93 51 147t139 54q35 0 65 -9q28 -8 58 -28zM249 317v-67h68v-21h-68
v-67h-20v67h-67v21h67v67h20zM445 317v-67h67v-21h-67v-67h-21v67h-67v21h67v67h21z" />
    <glyph glyph-name="uniF135" unicode="&#xf135;" 
d="M-8 448zM458 319q0 13 0.5 39t0.5 39h16v-74q6 1 18.5 4.5t18.5 5.5v-41q-6 -1 -18.5 -4.5t-18.5 -5.5v-100q6 1 18.5 4t18.5 5v-41q-6 -2 -18.5 -5t-18.5 -5v-72h-17v68q-12 -3 -36 -9.5t-37 -10.5v-78h-17v74q-6 -2 -18.5 -5.5t-18.5 -4.5v41q6 2 18.5 5.5t18.5 4.5
v101q-6 -2 -18.5 -5t-18.5 -5v41q6 1 18.5 5t18.5 5v72h17v-68q13 3 37 9.5t36 10.5zM385 258v-100q13 3 36.5 9t36.5 10v101q-12 -4 -36 -10.5t-37 -9.5zM86 377q44 21 95 15q49 -5 81 -40q21 -22 31 -58q-7 -2 -22 -5.5t-22 -4.5q-14 45 -46 61q-38 18 -86 3
q-46 -15 -62 -68q-15 -45 -4 -107q9 -49 43 -73q39 -29 92 -15q37 9 55 45q8 17 13 37q8 -2 23 -5.5t22 -5.5q-14 -55 -49 -83q-39 -32 -96 -30q-69 0 -106 40t-46 107q-7 64 12 111q20 50 72 76z" />
    <glyph glyph-name="uniF136" unicode="&#xf136;" 
d="M-8 448zM0 38l120 181l-120 181h90l121 -181l-121 -181h-90zM120 38l121 181l-121 181h91l241 -362h-91l-75 113l-75 -113h-91zM412 144l-41 60h141v-60h-100zM351 234l-40 60h201v-60h-161z" />
    <glyph glyph-name="uniF137" unicode="&#xf137;" horiz-adv-x="325" 
d="M-8 448zM105 104l-5 -6q-1 -6 17 -8q42 -5 91 4q10 -6 24 -12q-60 -26 -121 -10q-29 7 -27 19q3 8 21 13zM94 152q-1 -1 -2 -1.5t-2.5 -3.5t-1.5 -5t4 -4t12 -3q56 -6 118 6q7 -7 18 -11q-78 -23 -143 -9q-29 6 -27 16q4 8 24 15zM183 235q-20 25 -19.5 45t16 34.5t34 24
t33.5 13.5l15 5q-28 -16 -44.5 -29.5t-23.5 -21.5t-4.5 -20t5 -16t12.5 -19q10 -18 3.5 -32t-19.5 -23l-13 -8l2.5 2.5t5 6.5t5 10.5t0 13t-7.5 14.5zM297 67q24 -11 -13 -25q-68 -25 -193 -16q-35 2 -69 8q-38 6 -14 22q26 17 54 15q6 0 9 -2q-6 0 -16 -2q-27 -6 -28 -14
q0 -3 5 -5q35 -14 123.5 -12.5t128.5 13.5q12 4 15 8.5t1 6.5zM113 203l-38 -12q-21 -10 9 -14q32 -4 106 1l67 9q-12 -5 -20 -11q-70 -19 -160 -10q-45 4 -42 14q1 3 8 6q17 8 34.5 12.5t26.5 4.5h9zM257 122q60 31 49 62q-7 18 -27 18q-3 0 -5 -1l-9 -2q2 3 7 5
q31 11 47 -11q18 -23 -9 -48q-18 -16 -55 -26q2 2 2 3zM207 448q2 -2 4.5 -5.5t5.5 -15t0.5 -24.5t-16 -32.5t-38.5 -39.5t-32 -39.5t-2 -31t17.5 -30t16.5 -26.5q-38 34 -52 57.5t0 44.5q9 14 29.5 31t36.5 29.5t26 34t4 47.5zM121 4q-23 1 -38.5 4t-19.5 6l-4 2
q101 -16 201 3q27 5 43 11.5t19 10.5l3 4q-2 -26 -67.5 -36t-136.5 -5z" />
    <glyph glyph-name="uniF138" unicode="&#xf138;" horiz-adv-x="395" 
d="M-8 448zM197 3q-10 0 -17 4l-54 32q-8 5 -2 7q12 4 25 12q1 2 4 -1l42 -24q3 -2 5 0l163 94q3 1 3 4v189q0 2 -3 4l-163 94q-2 1 -5 0l-163 -94q-3 -2 -3 -4v-189q0 -3 3 -4l45 -26q18 -8 28.5 -2t10.5 18v186q0 5 4 5h21q5 0 5 -5v-186q0 -50 -48 -50q-17 0 -38 10
l-43 24q-17 9 -17 30v189q0 20 17 29l163 95q18 10 35 0l163 -95q17 -9 17 -29v-189q0 -21 -17 -30l-163 -94q-7 -4 -17 -4h-1zM248 132q-87 0 -87 61q0 4 5 4h21q5 0 5 -4q2 -17 13.5 -24.5t42.5 -7.5q49 0 49 26q0 6 -3 10t-16.5 8t-38.5 6q-37 3 -54.5 14t-17.5 36
q0 52 74 52q78 0 82 -57q0 -3 -1 -4t-4 -1h-21q-5 0 -5 4q-4 17 -14.5 23t-36.5 6q-42 0 -42 -22q0 -9 9.5 -13t46.5 -9q40 -6 57 -16.5t17 -35.5q0 -56 -81 -56z" />
    <glyph glyph-name="uniF139" unicode="&#xf139;" horiz-adv-x="410" 
d="M-8 448zM33 447h345q13 0 22.5 -9t9.5 -21v-1v-1q-1 -1 -1 -2l-34 -310q2 -20 -17 -30l-137 -67q-7 -3 -14 -3t-14 3l-138 67q-9 5 -14 14q-4 5 -5 12l-34 313l-1 1q-1 1 -1 2v1q0 13 10 22t23 9zM324 346q-20 0 -32 -10q-9 -8 -9 -30v-22q0 -16 -6 -22t-19 -6h-6v-24h6
q13 0 19 -6t6 -23v-20q0 -22 9 -30q12 -10 32 -10h21v24h-6q-14 0 -19 5q-4 4 -4 20v18q0 17 -4 24t-16 10q11 3 16 11q4 7 4 24v18q0 16 4 20t19 4h6v25h-21zM140 333q-19 0 -34 -7q-17 -8 -29 -21q-14 -16 -19 -31q-7 -21 -7 -37q0 -17 7 -38q5 -15 19 -31q10 -11 29 -20
q15 -7 34 -7q18 0 30 5q16 6 27 16l-11 18q-10 -10 -21 -14q-13 -5 -25 -5q-14 0 -27 6q-16 8 -23 15t-15 25q-5 15 -5 30q0 18 8 36q8 17 22 27q11 8 20 10q10 3 22 3q17 0 30 -7q17 -9 24 -20q4 -5 8 -17q3 -9 3 -20q0 -18 -7 -28q-8 -12 -19 -13v75h-21v-15q-3 8 -9 12
q-7 5 -16 5q-16 0 -27 -14t-11 -35q0 -20 11 -34t27 -14q11 0 16 4q6 4 9 12v-16h4q29 0 45 16q17 17 17 45q0 15 -4 26q-3 12 -11 23q-12 16 -31 26q-18 9 -40 9zM139 265q9 0 14 -8q5 -6 5 -20q0 -13 -5 -21t-14 -8t-14 8t-5 21q0 12 5 20t14 8z" />
    <glyph glyph-name="uniF13A" unicode="&#xf13a;" horiz-adv-x="479" 
d="M-8 448zM320 448q18 0 30 -5q9 -3 25 -19q6 -8 18 -36q6 -15 14 -23t14 -17q17 -38 44 -67q13 -12 13 -29q5 -32 -3 -58q-1 -2 -9 -12q-7 -9 -9 -10q-1 -1 -4 -1q-2 0 -5 6q-2 5 4 13q10 15 7 31q-1 5 -1.5 13t-0.5 11q-3 13 -8 13q-6 0 -11 -20l-3 -29q0 -36 2 -46
q2 -11 0 -27q-1 -7 2 -14q3 -6 3 -17q0 -6 -4 -14q-3 -5 -4 -18q0 -3 -0.5 -7t-0.5 -5q-3 -9 3 -26t4 -18q0 -2 1 -6.5t0 -7.5q-1 0 -12.5 1.5t-21.5 3.5v1q4 8 5 14q1 9 7 24q4 12 4 15q2 16 -1 29q-3 11 -3 24v6v4.5v3v2.5q-2 10 -10 23q-7 13 -9 19q-10 26 -11 29
q-3 16 -10 16q-5 0 -10 -11q-14 -21 -15 -37q-3 -18 -3 -35v-16l-1 -3q-2 -5 -7 -8q-7 -6 -7 -8q-5 -9 -11 -16q-11 -13 -12 -18q-1 -4 2 -9l3 -2l3 -3q8 -6 11 -17q1 -5 0 -8q-2 -9 -4 -11q-2 0 -8 0.5t-9 0.5l-1 3l-3 3q-5 6 -8 6t-6 -5q-2 -4 -4 -5h-41v2q1 4 11 8
q2 1 10 6q10 8 10 18q0 4 -14 20q-4 5 -21 17q-15 11 -16 12l-3 6q-2 6 -2 15q0 13 5 21q6 9 7 19q0 6 2 12q2 9 -1 12q-2 3 -13 3h-4q-5 0 -9 -4q-5 -5 -6 -20q-1 -10 -7 -20q-4 -8 -7 -22q-2 -12 -2 -19q0 -12 -1 -16q0 -1 -2 -5l-3 -6q-5 -10 -6 -19q0 -9 -1 -12
q-2 -8 -2 -13l-3 -18q-11 -1 -25 -1q7 13 8 14q6 10 8 24q3 17 2 24l-1 2v4t-0.5 5t-0.5 5q0 15 -1 18q-2 10 -2 15q0 2 -3 23q-4 17 0 35q1 10 -1 13q-5 6 -18 2q-39 -11 -76 31q-3 5 -11 14t-12.5 16.5t-5.5 16.5q0 6 -1 15t-1.5 16.5t-0.5 14.5q-1 9 6 22.5t8 18.5
q-1 5 -5 7.5t-8.5 3.5t-10.5 2t-10 2q-10 5 -8 13q2 10 14 17q6 3 19 4t17 2q13 3 21 9q10 8 20 8q25 -1 37.5 -21t15.5 -45q0 -9 -1.5 -18t-6.5 -22.5t-6 -17.5q-2 -7 2.5 -11.5t11.5 0.5q2 4 4 11t3.5 11.5t4.5 10t7 10.5q17 20 33 28q17 8 26 19q8 10 14 19q9 20 40 31
q4 1 15.5 5t17.5 5q2 0 6 0.5t5 0.5zM309 196q-2 0 -3 -1q-2 -1 -6 -12q-4 -14 -7 -17q-7 -9 -9 -18q-2 -10 -10 -17q-4 -3 -11 -10q-7 -6 -7 -12q0 -4 6 -14q5 -7 10 -12q12 -9 16 -11q5 -2 8 0q4 2 7 8q2 4 6 10q10 16 11 28q0 2 0.5 7t0.5 6q1 6 -3 28q-1 2 -1.5 9
t-0.5 10q-1 14 -5 17q-1 1 -2 1z" />
    <glyph glyph-name="uniF13B" unicode="&#xf13b;" horiz-adv-x="501" 
d="M-7 448zM238 368q103 2 176 -33q42 -18 68.5 -53t14.5 -75q-29 -81 -164 -108q-182 -31 -293 55q-30 22 -38 59t15 68q62 79 221 87zM244 335q-64 -2 -119 -20q-95 -36 -91 -92q14 -56 119 -86q168 -38 280 38q24 15 31 42.5t-12 49.5q-62 66 -208 68zM123 174l20 101h46
q30 -1 30 -29q0 -21 -14 -34t-31 -12h-22l-5 -26h-24zM157 218h15q21 2 22 27q0 11 -15 11h-16zM212 200l20 101h24l-5 -26h22q14 -1 20.5 -7.5t4.5 -16.5l-9 -51h-25l9 46q2 10 -7 10h-19l-11 -56h-24zM290 174l20 101h47q30 -1 30 -29q0 -21 -14 -34t-31 -12h-23l-5 -26
h-24zM324 218h15q22 2 23 27q0 11 -15 11h-17z" />
    <glyph glyph-name="uniF13C" unicode="&#xf13c;" horiz-adv-x="410" 
d="M-8 448zM378 447q13 0 22.5 -9t9.5 -21v-1v-1q-1 -1 -1 -2l-34 -310q2 -20 -17 -30l-137 -67q-7 -3 -14 -3t-14 3l-138 67q-9 5 -14 14q-4 5 -5 12l-34 313l-1 1q-1 1 -1 2v1q0 13 10 22t23 9h345zM59 187h27l6 30h25q19 -1 35 14t16 39q0 31 -34 32h-52zM98 238l7 43h18
q17 0 17 -13q-1 -28 -25 -30h-17zM160 217h27l13 64h21q10 0 8 -11l-10 -53h29l10 58q2 11 -5 18.5t-24 8.5h-25l6 30h-27zM250 189h27l5 29h26q19 -1 35 14t16 39q0 31 -34 32h-52zM288 240l7 42h18q17 0 17 -13q-1 -27 -25 -29h-17z" />
    <glyph glyph-name="uniF13D" unicode="&#xf13d;" horiz-adv-x="428" 
d="M-8 448zM212 448q32 0 54.5 -6t31.5 -14.5t14 -17.5t5 -15v-6v-99q0 -26 -14.5 -40.5t-28.5 -15.5l-15 -2h-103q-28 0 -42.5 -16t-15.5 -32l-1 -16v-53h-36q-2 0 -6.5 0.5t-15 6t-18.5 15.5t-14.5 33.5t-6.5 55.5t7 55t17 32.5t20.5 14t17.5 4.5h7h145v16h-103l-1 51v5.5
t4.5 11.5t14 14.5t31 12t52.5 5.5zM155 414q-8 0 -13.5 -6t-5.5 -14t5.5 -13.5t13.5 -5.5t13.5 5.5t5.5 13.5t-5.5 14t-13.5 6zM215 3q-32 0 -54 6t-31.5 14.5t-14 17.5t-4.5 15v6v98q0 26 14.5 41t28.5 17l14 1h103q28 0 43 16t16 31l1 16v53h36h6.5t15 -5.5t18.5 -15.5
t14.5 -33.5t6.5 -55.5t-7 -55t-17.5 -32.5t-21 -14.5t-17.5 -5h-7h-145v-15h104v-51v-5.5t-4.5 -11.5t-14 -14.5t-31 -12t-52.5 -5.5zM272 37q8 0 13.5 5.5t5.5 13.5t-5.5 14t-13.5 6q-7 0 -12.5 -6t-5.5 -14t5 -13.5t13 -5.5z" />
    <glyph glyph-name="uniF13E" unicode="&#xf13e;" horiz-adv-x="448" 
d="M-8 448zM114 15v0l2 1l289 -12l-393 -1zM317 174l119 -160l-306 12zM448 16l-123 165l106 198zM0 54l14 135l25 -21l-39 -121v7zM46 151l61 -122l-103 -13zM106 58l-56 111l79 51zM307 184l-190 -150l25 185zM232 329l71 -133l-160 35zM245 329l167 45l-96 -180zM239 341
l23 60l131 -21zM429 386l-140 25l112 36zM357 448l-106 -34l-19 5zM224 341l-95 -106l-85 -53l-24 21l34 63l80 90l77 54l35 -10z" />
    <glyph glyph-name="uniF13F" unicode="&#xf13f;" horiz-adv-x="327" 
d="M-8 448zM326 448l-1 -105q-4 -6 -13.5 -11.5t-26.5 -10t-33.5 -8t-42 -7t-43.5 -6t-46.5 -5.5t-43.5 -4.5t-41.5 -3.5t-33.5 -3v105q303 33 325 59zM326 307l-1 -105q-4 -6 -13.5 -11.5t-26.5 -10t-33.5 -8t-42 -7t-43.5 -6t-46.5 -5.5t-43.5 -4.5t-41.5 -3.5t-33.5 -3
v104q302 33 325 60zM327 167l-2 -105q-4 -6 -13.5 -11.5t-26.5 -10t-33.5 -8t-42 -7t-43.5 -6t-46.5 -5.5t-43.5 -4.5t-41.5 -3.5t-33.5 -3v104q303 33 326 60zM278 331q-5 0 -11 -2q-2 -1 -3 -1l-264 -35l1 -11q52 -3 103.5 -15t114.5 -32t97 -28l8 -1v7l2 95v1h-1
q0 1 -1 3q-2 3 -6 6q-20 13 -40 13zM278 320q15 0 33 -11l2 -2l-1 -87q-13 3 -110 32t-153 37l217 29h2h1q0 1 2 1q1 0 3 0.5t4 0.5zM277 190q-8 0 -11 -1q-1 0 -2 -1h-1l-263 -36l1 -11q52 -3 103.5 -15t114.5 -32t97 -28l7 -2v7l2 96v1v1q-3 5 -8 8q-20 13 -40 13z
M278 180q14 0 32 -12l3 -2l-2 -88q-16 4 -111.5 33t-151.5 37l218 29h1l1 1l2 1q2 1 8 1z" />
    <glyph glyph-name="uniF140" unicode="&#xf140;" horiz-adv-x="410" 
d="M-8 448zM240 -64l-81 17l-82 53l-59 91l-16 83l-2 68q8 46 13 55l37 59l61 52l84 34l56 -2l57 -12l47 -24l39 -57q7 -30 9 -39l7 -68l-23 -65l-47 -48l-64 -27l-66 20l-40 37l-16 56l16 52l40 37l48 4l34 -18l25 -36l-43 34l-27 6l-32 -9l-18 -18l-18 -29v-45l22 -32
l43 -27h44l45 22l22 32q14 34 14 48q0 45 -4 54l-28 57q-20 17 -29 22l-39 17q-34 6 -45 6l-54 -14l-48 -25l-43 -31l-29 -52l-9 -53l2 -49l4 -39l18 -41l23 -45l68 -72l51 -28z" />
    <glyph glyph-name="uniF141" unicode="&#xf141;" 
d="M-8 448zM256 448q106 0 181 -75t75 -181t-75 -181t-181 -75h-198q-24 0 -41 17t-17 41v198q0 106 75 181t181 75zM331 387q-49 0 -84.5 -35.5t-35.5 -84.5v-63h-50q-12 0 -20.5 -8t-8.5 -20t8 -20t20 -8h42q9 0 9 -9v-55q0 -26 -18.5 -45t-44.5 -19q-6 0 -13 1t-10 1
q-13 0 -21 -7.5t-8 -19.5q0 -21 25 -28q18 -4 27 -4q49 0 84.5 35.5t35.5 85.5v63h50q12 0 20 8t8 20t-8 20t-20 8h-41q-9 0 -9 9v55q0 26 18.5 45t44.5 19q7 0 13 -1t10 -1q13 0 20.5 7.5t7.5 19.5q0 21 -24 28q-14 3 -27 3z" />
    <glyph glyph-name="uniF142" unicode="&#xf142;" horiz-adv-x="452" 
d="M-8 448zM226 438q-89 0 -152.5 -63t-63.5 -152t63.5 -152t152.5 -63t152 63t63 152q0 59 -28 107q-15 -27 -24 -36q-8 -8 -27 -1t-38 26t-26 37.5t1 26.5q10 10 37 25q-51 30 -110 30zM421 448q15 0 23 -8t8 -23t-4 -30q-7 -31 -24 -61q22 -39 22 -103q0 -91 -64 -155.5
t-156 -64.5t-156.5 64.5t-64.5 155.5q0 57 28 107q-20 36 -27 59q-6 20 -6 28q0 16 7 23t21 7q33 0 89 -32q52 29 109 29q63 0 107 -25q34 19 59 25q13 4 29 4zM421 436q10 0 14 -4q5 -5 5 -15q0 -12 -3 -27q-7 -29 -25 -61l-1 -3l1 -3q23 -40 23 -100q0 -86 -61.5 -147.5
t-147.5 -61.5t-147.5 61.5t-61.5 147.5q0 57 27 104l2 3l-2 3q-19 35 -27 59q-5 17 -5 26q0 11 3 14q4 4 13 4q30 0 86 -33l3 -1l3 1q50 29 106 29q64 0 105 -24l2 -2l3 1q36 20 59 26q10 3 26 3z" />
    <glyph glyph-name="uniF143" unicode="&#xf143;" horiz-adv-x="322" 
d="M-8 448zM120 233q-29 3 -38.5 30t2 56.5t35.5 42.5q52 27 107 5q41 -16 57.5 -39t22.5 -67q7 -52 -16 -130t-68 -89q-41 -10 -61 4t-15 37q3 13 21.5 44t19.5 44q2 25 -14.5 40.5t-34.5 18.5zM10 369q-13 18 -10 39t20 32q16 11 37 6.5t34 -22.5t9.5 -39t-20.5 -32
q-16 -11 -36.5 -6.5t-33.5 22.5zM138 384q-10 1 -16.5 13.5t-4.5 23.5q1 10 10 16t20 4q10 -1 16.5 -13.5t4.5 -23.5q-1 -10 -10 -16t-20 -4zM184 394q-6 8 -4 22.5t11 20.5q18 12 31 -5q6 -8 4.5 -23t-10.5 -21q-19 -12 -32 6zM233 385q-2 9 5 20t16 13q10 2 18 -3t10 -14
t-5 -20t-16 -13q-10 -2 -18 3t-10 14zM285 368q13 20 30 9q16 -11 3 -31t-30 -9q-16 11 -3 31z" />
    <glyph glyph-name="uniF144" unicode="&#xf144;" horiz-adv-x="247" 
d="M-8 448zM184 448h5q9 -1 13 -22t9 -27q9 31 15 35q5 4 11.5 4t9 -5.5t-3.5 -18.5q-8 -12 -3.5 -34t3.5 -30q-2 -12 -11 -19.5t-11 -12.5t-1.5 -30t-5.5 -30q-15 -22 -7 -49q31 -70 31 -142q0 -39 -8 -51.5t-25 -12.5q-6 0 -13.5 9t-14 20t-18 20.5t-25.5 9.5
q-22 1 -54 -25t-42 -26t-13.5 6.5t-2.5 23.5q0 15 1 22q-3 -7 -6 -7q-7 0 -12.5 4t-4.5 12q1 4 11 16.5t11 24.5q0 10 -4 22.5t-3 24.5q0 9 16 30t21 48q5 45 5.5 97.5t-4.5 64.5q23 -13 60 -51.5t67 -88.5q8 -7 18.5 -0.5t11.5 17.5q2 37 -12 38q-6 1 -15 6t-15 6
q-3 0 -8 -1t-8 -1.5t-6 1t-5 6.5q-3 9 5.5 14.5t21.5 7.5q-16 16 -25 41q-10 27 6 33q6 3 10 -3.5t9 -17.5t12 -16q-6 23 -6 39q0 18 10 18zM118 286q-1 0 -2.5 -0.5t-2.5 -0.5q-12 -2 -24 -11t-13 -20q-1 -9 4 -19q2 -4 8 -10v-1h1l1 -1q8 -6 17 -6h3q5 0 11 2q6 1 11 4v1
q12 7 16 16v1q1 1 1 2l1 1v1q2 6 2 8v3v4v4l-3 6q-9 16 -31 16zM161 272h-1l-2 -1q3 -9 3 -11q1 -18 -10.5 -32t-29.5 -18q-33 -8 -47 17q0 1 -1 1l-1 2q-2 -1 -4 -3t-4 -3l-6 -31q-7 -31 -11.5 -53.5t-9 -52t-4.5 -46t6 -17.5q7 -1 37.5 25t55.5 26q20 0 36 -15t25 -30
t13 -15q8 0 10.5 1.5t6 16t3.5 46.5q1 45 -20 100.5t-45 92.5zM38 176q-3 0 -8 -9t-5 -16q0 -4 7 -23q4 28 7 41q0 7 -1 7z" />
    <glyph glyph-name="uniF145" unicode="&#xf145;" horiz-adv-x="430" 
d="M-8 448zM251 442l-1 -137l100 134l80 -19l-104 -133l103 -142l-79 -25l-100 147v-132l-75 -12v312zM79 366h1l2 -1l57 -37q11 6 21 10v-31q-32 -14 -51.5 -44t-19.5 -66q0 -49 35.5 -84.5t85.5 -35.5q35 0 63.5 18t43.5 48l29 -44q1 -1 3 -1l7 3l20 -34q1 -2 -1 -4
l-30 -30q-2 -2 -4 -1l-56 37q-19 -12 -36 -16l-16 -63q0 -3 -3 -3h-42q-4 0 -4 3l-13 63q-15 3 -36 15l-56 -34q-3 -2 -5 0l-29 30q-2 2 -1 5l36 55q-11 19 -15 38l-62 15q-3 0 -3 4v42q0 4 3 4l64 13q6 18 15 33l-35 58q-1 3 0 4l30 30q1 1 2 1z" />
    <glyph glyph-name="uniF146" unicode="&#xf146;" horiz-adv-x="497" 
d="M-8 448zM277 335q25 0 44 -19q19 19 45 19q27 0 45 -20q19 -21 19 -46v-111q-3 -30 -23 -50q-24 -24 -58 -24h-146q-27 3 -47 23q-24 24 -24 56v205h39v-197q0 -19 11.5 -33t27.5 -14h131q20 0 34.5 12t14.5 29l-1 104q0 10 -7 17q-8 8 -16 8q-9 0 -17 -8q-7 -7 -7 -17
v-89h-41v89q0 10 -7 17q-8 8 -17 8q-8 0 -16 -8q-7 -7 -7 -17v-89h-41v89q0 25 19 46q18 20 45 20zM231 3q-70 0 -121 47t-51 115v112v29h-59v142l324 -1q70 0 121.5 -47.5t51.5 -115.5v-281h-266zM459 78v206q0 52 -39.5 88.5t-95.5 36.5h-77l-209 1v-67h23q13 0 24 -10.5
t11 -26.5v-141q0 -52 39.5 -88.5t95.5 -36.5h184q18 0 31 10.5t13 27.5z" />
    <glyph glyph-name="uniF147" unicode="&#xf147;" horiz-adv-x="452" 
d="M-8 448zM6 419l3 -2l89 -168l75 -141l59 -113q7 -10 -6 -16q-6 -2 -10.5 -1t-6.5 4l-2 2l-60 124l-67 141h-1l-78 163q-2 4 2 6q1 1 3 1zM452 428q-49 12 -93.5 0.5t-102.5 -40.5q56 15 92.5 15.5t90.5 -20.5q-21 5 -43 4.5t-39 -3.5t-39.5 -11.5t-36.5 -15t-38 -18.5
q-25 -12 -40 -18t-39.5 -13.5t-41 -5.5t-43.5 6q-4 7 -10.5 18t-10.5 18t-11 20t-11 20t-10.5 18t-10.5 18q36 -14 74.5 -16.5t70 3t74.5 17.5q46 13 75 19t68.5 3.5t74.5 -18.5z" />
    <glyph glyph-name="uniF148" unicode="&#xf148;" horiz-adv-x="349" 
d="M-8 448zM94 448q2 0 6.5 -2t5.5 -2q5 2 17 -3q10 2 19 -7h6q17 -10 26 -39q9 29 27 39h6q9 9 19 7q11 4 16 3q15 5 20 1q11 5 19 -2q11 1 14 -4q16 0 21 -7q11 1 14.5 -4.5t-0.5 -13.5q6 -9 -1 -18q3 -8 -5 -17q2 -8 -7 -16q1 -8 -12 -17q-2 -11 -14 -14q-2 -7 -15 -11
q40 -24 40 -70l3 -5q22 -13 28.5 -42.5t-16.5 -60.5q-1 -7 -5 -18t-5 -13q-3 -25 -19 -41t-27 -18q-25 -19 -45 -26q-23 -24 -55 -24h-1q-32 0 -55 24q-20 7 -45 26q-11 3 -27.5 18.5t-19.5 40.5q-9 29 -9 31q-23 31 -16.5 60.5t28.5 42.5l3 5q0 48 40 70q-13 4 -15 11
q-13 4 -15 14q-12 8 -11 17q-9 8 -7 16q-8 9 -5 17q-7 9 -1 18q-4 8 -0.5 13.5t14.5 4.5q5 7 21 7q3 5 14 4q8 7 19 2q5 3 7 3zM95 437q4 -7 2 -9q-10 6 -20 8q1 -1 3 -2.5t2.5 -2.5t-0.5 -3q-7 2 -19 4q5 -5 3 -7q-13 4 -22 2l5 -5h-1q-2 -1 -6 -1h-7h-7q6 -7 8 -16h-9
q2 -5 7 -9t6 -5q-2 -2 -10 0q1 -2 14 -15q-2 -2 -8 -1q4 -5 16 -13q-1 -1 -9 -1q4 -4 20 -13q-3 -2 -8 -2q5 -4 21 -8q-1 -2 -6 -4q5 -3 13.5 -3.5t9.5 -1.5q-2 -4 -6 -5q48 -4 56 28q-21 24 -80 55q51 -17 87 -47q13 6 14 19t-5 24.5t-14 19.5q-1 -5 -3 -7q-2 2 -6.5 7
t-7.5 8q0 -7 -2 -8q-5 7 -13 11q2 -3 -1 -8q-7 7 -17 11zM255 437q-10 -4 -17 -11q-3 5 -1 8q-8 -4 -13 -11q-2 1 -2 8l-15 -15l-2 7q-8 -8 -14 -19.5t-5 -24.5t14 -19q36 30 87 47q-59 -31 -80 -55q8 -32 56 -28q-4 1 -6 5q1 1 9.5 1.5t13.5 3.5q-5 2 -6 4q16 4 21 8
q-5 0 -8 2q19 11 20 12q-7 0 -9 2q12 8 16 13q-6 -1 -8 1q13 13 14 15q-8 -2 -10 0q1 1 6 5t7 9h-9q2 9 8 16h-7h-7t-6 1h-1l5 5q-9 2 -22 -2q-2 2 3 7q-12 -2 -19 -4q-1 1 4 8q-8 -1 -19 -8q-2 2 2 9zM174 323q-16 1 -31 -9.5t-15 -18.5q0 -10 13 -18t33 -8t33 7t13 17
q0 11 -15 20.5t-31 9.5zM104 314q-25 -1 -41 -17t-15 -43q1 -13 44 26q36 32 26 33q-5 1 -14 1zM240 313q-9 0 -14 -1q-11 -2 29 -36q40 -35 41 -23q1 27 -15 43t-41 17zM224 268q-15 0 -24 -8q-19 -17 -15.5 -44t23.5 -41q1 -1 3 -2t3 -2q26 -15 49 3q19 17 15.5 43.5
t-23.5 40.5q-1 0 -3 2t-3 2q-11 6 -25 6zM124 267q-21 1 -37 -15.5t-18 -37.5q0 -1 -0.5 -3.5t-0.5 -3.5q0 -31 27 -41q23 -8 44.5 9t23.5 42v7q0 31 -27 41q-8 2 -12 2zM301 238q-14 0 -8 -44q8 -43 21 -42q17 11 16 40.5t-27 44.5q-1 0 -1 0.5t-1 0.5zM43 236h-2
q-26 -15 -27 -44.5t16 -40.5q7 -3 14 14q14 35 7 61q-2 10 -8 10zM176 172h-1q-21 0 -35.5 -13.5t-14.5 -33.5v-1q0 -20 14.5 -33.5t35.5 -13.5t36 14t15 33v1q0 19 -14.5 32.5t-34.5 14.5h-1zM287 155q-16 0 -39 -27q-12 -14 -16.5 -34.5t3.5 -28.5q7 -8 27 -2.5t35 25.5
q11 16 10 35.5t-9 27.5q-4 4 -11 4zM57 147q-5 0 -9 -3q-7 -4 -6.5 -21t9.5 -34q14 -19 32.5 -25t25.5 1q9 7 5.5 25.5t-14.5 31.5q-20 23 -40 25h-3zM176 64q-16 1 -33.5 -5t-17.5 -14q0 -7 16 -18.5t33 -10.5q17 0 33 11.5t16 19.5q0 7 -15.5 12.5t-31.5 4.5z" />
    <glyph glyph-name="uniF149" unicode="&#xf149;" horiz-adv-x="493" 
d="M-8 448zM247 448q102 0 174 -72.5t72 -174.5q0 -73 -39 -134q-20 4 -30 4q-26 0 -45 -8q-2 -2 -2 -3v-2q1 -4 -1.5 -7t-10.5 -4q-6 -1 -12 -5t-9 -7.5t-7.5 -8.5t-5.5 -6q-11 -8 -24 -7q0 1 3.5 5t7 9t6.5 10q3 6 8 12t7 9q10 15 11 19t1.5 11.5t0.5 8.5t3.5 10.5
t3.5 13.5q-1 2 -4.5 0.5t-9.5 -3.5t-9 -2q-4 0 -11 2.5t-10 2.5q-4 0 -10.5 -3.5t-10.5 -2.5l-6 3q-6 2 -10 2q-3 0 -18.5 -3t-29.5 -2q-15 1 -29.5 13.5t-19.5 21.5q-5 7 -13 1q-7 -6 -12 2q-11 22 -25 25q-12 3 -19 -4t-6 -17q0 -5 12 -22q7 -11 12 -13q7 -3 5 -9
q-1 -4 -9 -4t-16 4q-6 4 -11 12q-6 10 -18 10q-5 0 -10 -3q-18 -9 -41 -9h-17q-13 41 -13 78q0 102 72.5 174.5t174.5 72.5zM284 397q-5 0 -17 -2q-34 -9 -54 -4q-52 12 -62 -25l-10 -44q-3 -5 -0.5 -11.5t7 -13t22 -13.5t45.5 -12q36 -7 41 -24q4 -16 13 -23q3 -3 1 -4.5
t-7 -2.5q-13 -2 -48.5 9.5t-60.5 25.5q-35 21 -22 46q-71 8 -81 -24q-7 -26 46.5 -63.5t128.5 -60.5q77 -24 144.5 -8.5t76.5 63.5q4 22 -12.5 38t-48.5 23q-4 -18 -22 -27q-1 -1 -2 0t0 3q6 10 9 16q4 13 -1 31q-18 67 -43 92q-17 17 -43 15zM301 90q5 -5 1 -11
q-1 -4 -6 -7q-8 -8 -20 0q-6 4 -12 3q-4 -1 -5.5 2.5t0.5 6.5q5 9 18 2q12 -6 16 -3l2 2t2.5 2t2.5 3h1zM227 331q-29 -2 -36 -11q-4 -3 -8 -1t-7 7l-3 4q-5 1 -8.5 7.5t-0.5 12.5q6 13 13 3q8 -8 16 -8q3 0 12 0.5t16 0.5q21 0 21 -8q0 -6 -15 -7zM257 378h-1l1 1q9 4 23 6
q2 0 4 0.5t4 0.5h2q12 0 20 -4.5t8 -9.5q0 -13 -29 -13q-6 0 -14 2l-1 1q0 1 1 1q16 3 16 10q-2 9 -29 5h-5z" />
    <glyph glyph-name="uniF14A" unicode="&#xf14a;" 
d="M-8 448zM356 234q-7 -20 3 -40q-26 16 -50 21h-1q-4 18 11 33q10 10 17 14q3 2 7 5t8.5 13.5t0.5 22.5t-5 12q13 -14 18 -31q6 -13 -2 -31q-7 -16 -7 -19zM408 149q-15 20 -39 38q0 17 22 26q13 5 21 7q3 1 8 2.5t13.5 10t8.5 20.5v12q1 -2 2 -5.5t2.5 -13t0.5 -17.5
q0 -13 -14 -27q-12 -13 -13 -15q-2 -2 -4 -5t-5.5 -13t-2.5 -20zM512 185q1 -19 -8 -35q-6 -13 -24 -20q-16 -7 -18 -9q-19 -10 -25 -31q-7 24 -21 47l-1 3q9 16 30 16q15 0 23 -1q29 -6 40 19q4 10 4 11zM295 218q-18 2 -26 2q-10 0 -28 -2q-9 18 -2 34q7 14 11 20
q17 23 -1 44q-8 9 -9 9q18 -8 29 -22q1 -1 2.5 -3.5t4 -10t2.5 -16.5q-1 -17 0 -20q1 -21 17 -35zM199 242q9 -19 29 -26q-25 -6 -49 -20h-1q-2 1 -4.5 3.5t-6.5 10.5t-4 17q1 14 3 22q8 29 -17 41q-11 5 -12 5q20 -1 35 -10q12 -5 19 -24q7 -17 8 -19zM167 189
q-21 -14 -39 -37q-18 3 -25 23q-5 14 -6 22q-3 30 -31 32h-12q2 1 5.5 2t13.5 2.5t17 -0.5q13 -1 26 -16l14 -14q2 -2 5 -4.5t12.5 -6t19.5 -3.5zM81 140q19 -7 39 1q-14 -21 -22 -48v-1q-18 -4 -32 12q-10 11 -14 18q-1 3 -4 7t-13.5 9.5t-22.5 1.5q-11 -3 -12 -4
q14 13 32 17q13 4 31 -5q15 -7 18 -8z" />
    <glyph glyph-name="uniF14B" unicode="&#xf14b;" 
d="M-8 448zM244 323q34 0 42 -1q41 -4 92 -20v17q14 -2 42 -8q43 -10 58 -18q9 -4 14 -10.5t11 -22.5q9 -24 9 -28q0 -3 -16 -11q-23 -12 -50 -3q-25 8 -47 23l-8 5l9 -20l10 -5q34 -16 53 -18q15 -1 39 10l7 3q2 0 -2 -11q-2 -6 -14 -12q-28 -13 -62 -16q-17 -2 -38 1
q-20 3 -30 1q-8 -2 -11 -10q-5 -11 -1 -24q3 -14 16 -35l3 -6q-39 17 -42 19q-1 1 -11 13q-5 6 -16 17q-21 21 -49 21q-18 0 -31 -11q-6 -6 -9 -20q-2 -15 0 -28l1 -4l-33 16l-1 6q-6 25 -26 45q-25 25 -58 25q-28 0 -44 -16q-17 -17 -17 -39q0 -39 37 -52q9 -3 18 -3
q8 0 16 2q19 6 22 27q2 9 -3.5 19t-13.5 14q-17 9 -29 -1q-9 -9 0 -18q4 -4 10 -2q15 4 18 -7t-9 -15q-14 -6 -28 1.5t-18 22.5q-4 17 4.5 29t24.5 17q13 4 27 0q39 -9 44 -52q1 -15 -4 -28q-18 -43 -71 -38q-26 2 -46.5 18.5t-28.5 41.5q-4 12 -4 27q0 24 11 47
q28 55 106 95q48 23 96 29q6 1 31 1zM458 288q-8 0 -15 -3q-6 -2 -13 -14q-6 -16 3 -30q12 -19 34 -12q14 4 19.5 17.5t-2.5 26.5q-9 15 -26 15zM457 280q16 0 21 -17q2 -8 -2 -15q-7 -14 -22 -11q-12 2 -16 12q-7 13 5 25q6 6 14 6zM462 269q-5 0 -8 -3.5t0 -6.5
q5 -5 14 -1q4 2 3 6q-3 5 -9 5z" />
    <glyph glyph-name="uniF14C" unicode="&#xf14c;" horiz-adv-x="494" 
d="M-8 448zM397 448q21 0 35.5 -15t14.5 -36v-2v-2v-2v-2v-2v-2q0 -21 -14.5 -35.5t-35.5 -14.5t-36 14.5t-15 35.5v2v2v2v2v2v2q0 21 15 36t36 15zM290 408q17 0 35 -3q3 0 3 -4v-2q0 -29 21 -49.5t50 -20.5q21 0 38 11q4 2 6 0q45 -49 51 -116v-1l-1 -1l1 -1v-1v-1l-1 -1
l1 -1v-1v-1l-1 -1l1 -1v-1q0 -2 -1 -3q-2 -2 -3 -2h-77q-4 0 -4 4q-7 43 -41 72t-78 29q-22 0 -47 -10q-3 -2 -5 2l-41 65q-1 1 -1 3l1 1q-1 1 -1 3l1 1q-1 1 -1 3l1 1q-1 1 -1 3l3 3q42 21 91 21zM168 366l2 -2l41 -65q2 -2 0 -4q2 -2 0 -4q2 -2 0 -4q1 -3 -1 -5
q-38 -32 -41 -84q3 -49 41 -84q2 -2 1 -5q2 -2 0 -4q2 -2 0 -4q2 -2 0 -4l-42 -65l-2 -2q-2 0 -3 1q-53 42 -71 102q0 1 1 3l-1 1q0 1 1 3l-1 1q0 1 1 3l-1 1q0 2 2 4q23 18 26 49q-3 31 -26 49q-2 2 -2 4l1 1v1q-1 1 -1 2l1 1v1q-1 1 -1 2l1 1v1q-1 1 -1 2q18 60 71 102
q1 1 4 1zM52 255q22 0 37 -15t15 -37v-2v-2v-2v-2v-2v-2q0 -22 -15 -37t-37 -15t-37 15t-15 37v2v2v2v2v2v2q0 22 15 37t37 15zM490 188q2 0 3 -1t1 -3v-1q-1 -1 -1 -2t1 -1v-1q-1 -1 -1 -2t1 -1v-1q-1 -1 -1 -2t1 -1q-8 -70 -58 -122q-2 -2 -4 -1q-16 8 -33 8
q-27 0 -47 -17.5t-23 -44.5q0 -4 -3 -4q-18 -3 -36 -3q-46 0 -92 22l-2 2v4v4v4v4l41 64q2 4 5 2q21 -10 48 -10q44 0 78 28.5t41 71.5q0 4 3 4h78zM399 51q22 0 36.5 -15t14.5 -36v-2v-2v-2v-2v-3v-1q0 -21 -15 -36.5t-36 -15.5q-22 0 -37 15.5t-15 36.5v1v3v2v2v2v2
q0 21 15 36t37 15z" />
    <glyph glyph-name="uniF14D" unicode="&#xf14d;" horiz-adv-x="482" 
d="M480 390q12 -40 -20 -68q-4 -4 -13 -9.5t-11 -7.5q1 -5 8 -22q32 -73 11 -153q-26 -90 -108 -137q-42 -22 -66 -26q-31 -6 -72 -3q-38 6 -54 12q-92 30 -134 120q-30 66 -18 134q13 77 66 127q69 70 166 67q53 0 109 -28q15 25 24 32q31 22 59 13q19 -5 33.5 -18.5
t19.5 -32.5zM405 136q19 55 0 114q-15 45 -51.5 78.5t-82.5 43.5q-33 7 -54 4q-53 -4 -98 -40q-36 -30 -54 -71q-23 -53 -13 -103q11 -60 51 -98q52 -55 133 -55q35 3 62 14q37 14 65.5 44.5t41.5 68.5zM433 355q7 1 13 5.5t4 11.5v20q-3 14 -22 14h-48q8 -11 10 -14h42v-6
h-37q2 -2 5.5 -7t5.5 -7q24 0 29 -1q-4 -4 -11 -4h-44q0 -1 4 -5.5t6 -7.5q36 0 43 1zM215 296q18 10 36 0q9 -5 21 -21q13 -19 49 -69.5t55 -78.5h-205q4 5 11 14t12.5 16.5t9.5 14.5h72q-14 21 -44 61q-67 -91 -78 -106h-67q21 30 103 143q14 20 25 26z" />
    <glyph glyph-name="uniF14E" unicode="&#xf14e;" horiz-adv-x="313" 
d="M3 373l148 53q5 2 5 -4v-460q0 -6 -5 -4l-148 55q-3 1 -3 4v352q0 3 3 4zM179 288q0 2 2 3t3 0l128 -73q1 -1 1 -3v-186q0 -1 -2 -3l-127 -68q-5 -2 -5 3v327z" />
    <glyph glyph-name="uniF14F" unicode="&#xf14f;" horiz-adv-x="495" 
d="M349 119q65 -10 105 -30.5t41 -45.5q0 -21 -29.5 -39.5t-78.5 -29.5h-2q-11 0 -11 10q0 8 8 10q78 23 78 45q-2 23 -86 34h-1q-4 0 -4 -5v-1q5 -20 5 -34q0 -4 -3 -7q-4 -4 -7 -4h-64q-4 0 -7.5 3t-3.5 7q-2 28 -21 60t-36 51t-54 56q-60 62 -83 95q-37 52 -42 105
q0 3 5 8q3 3 6 3h2l2 -1q31 -13 66 -21q6 -2 10 -7q14 -41 95 -123q3 -3 7 -3q2 0 8 3q80 82 95 124q4 6 9 7q35 7 65 21q2 1 5 1q2 0 6 -2q4 -3 4 -10q-5 -54 -41 -105q-25 -37 -83 -95q-1 -1 -3.5 -3t-3.5 -3q-5 -5 0 -10q3 -4 9.5 -12.5t9.5 -13.5q14 -21 23 -38z
M178 153q31 -33 42 -48q5 -8 1 -16q-16 -28 -18 -57q-2 -10 -11 -10h-64q-3 0 -7 4t-4 7q1 15 6 34v1q0 5 -5 5q-84 -12 -84 -34t78 -45q7 -2 7 -10q0 -10 -10 -10h-2q-107 25 -107 69q0 24 39.5 45.5t104.5 32.5q4 8 18 30q5 5 9 5t7 -3zM239 309q-31 31 -35 55q-1 1 -1 4
q0 10 9 10h5.5t12.5 -0.5t17 -0.5q11 0 23 1h13q9 0 9 -10v-2l-1 -2q-14 -33 -37 -55q-2 -3 -8 -3q-4 0 -7 3z" />
    <glyph glyph-name="uniF150" unicode="&#xf150;" horiz-adv-x="479" 
d="M238 420q-2 14 0 14q6 0 23 -19q29 -30 42 -74.5t1 -70.5q-11 -26 -46 -27.5t-81 20.5q-44 21 -47 38q-2 6 5 11t24 10q57 18 70 32q14 14 11 40q-1 3 -1.5 12.5t-0.5 13.5zM344 302q5 4 11 -1q8 -7 14 -28l6 -18q2 -4 2 -9q0 -4 8 -19t13 -20q15 -15 45 -13q24 2 28 3
q8 1 8 -2t-14.5 -17.5t-23.5 -20.5q-31 -19 -63.5 -28t-51.5 -2q-23 7 -32 26q-4 7 -4 31q0 18 7 40q8 26 22 47l8 14q0 1 6.5 8t10.5 9zM102 259q39 9 60 1q24 -10 29 -39q4 -19 -4.5 -49.5t-23.5 -53.5q-5 -7 -5 -8l-2 -4q-5 -5 -8 -9q-18 -22 -28 0q-12 27 -12 34
q0 4 -3 10q-4 8 -4 10q0 9 -17 29q-9 9 -16 12q-8 4 -29 3q-5 0 -15.5 -0.5t-13.5 -1.5l-10 -2l4 6q12 19 40.5 36.5t57.5 25.5zM216 140q60 7 117 -36q26 -20 14 -30q-8 -7 -47 -18q-41 -13 -52 -29q-10 -15 -6 -51l2 -20q-1 -1 -8.5 4t-16.5 14t-14 17q-18 27 -26 51
q-6 16 -7 39q-1 21 4 32q2 7 9 14q10 11 31 13z" />
    <glyph glyph-name="uniF151" unicode="&#xf151;" 
d="M363 235h1v2v1q0 -2 -1 -3zM351 263v2h-2v-2h2zM317 198q0 -15 -22 -31l-20 -14q-7 -3 -9 -4v0v1q-3 -3 -15 -5q-16 -8 -28 -11q-3 -6 -10 -13h-1q1 5 3 7q3 3 3 4v1h-1h-2h-1v1l-4 -2l-1 1q12 19 38 79q2 6 5 12.5t4 9.5l1 3q-1 1 -1 2q2 0 3 3v1q-9 -2 -22 -12h-1
q-1 2 -2 2q-3 -2 -8 -7l-1 2l1 1v1l-2 -2l-6 -27l4 -2q-2 -2 -3 -2l1 -1q-6 -4 -6 -9q-21 -73 -29 -90l-2 3q5 10 9 30l2 4v1q-2 -2 -5 -12q-1 -1 -3 -11q-2 0 -4 -10q-1 0 -1 -4q-1 -3 -2 -3h-2v-1h-1l-1 -1h-2q4 20 8 31l7 19l3 13l3 9q5 18 4 20q-24 -4 -24 -9
q-9 -12 -25 -34t-18 -24v0q0 3 1 3h-3q0 -2 -2 -4h-1v1l-1 1v2l1 3l-2 -1l2 7l4 7l21 34v1h-2h-1l-4 -1h-3v-1h-3h-3q-4 -11 -24 -27q-13 -7 -28 -19q-3 -3 -13 -5v-1h1l4 1v-1q-6 -4 -20 -6q-26 -11 -36 -14q-3 -6 -13 -18h-1v1q1 6 5 10q2 4 2 5v1h-1l-1 -1h-1v1h-2l-6 -2
l-1 2q16 25 50 105q13 29 13 33q-1 0 -1 2q1 2 3 4v1q-11 -3 -29 -16h-1q0 2 -3 2q-6 -4 -10 -8l-1 2l2 1v2q-2 -1 -4 -3l-1 1q4 6 9 6h2l-1 2v2l2 1h1h1l-1 1q14 8 14 10v1h-1l-1 -1q0 1 -1 1l-3 -1v1q11 5 20 12q27 12 50 14q23 0 32 -6q14 -6 16 -19v-2q0 -13 -7 -22
l-16 -15q-8 -5 -8 -7q13 -14 13 -16l3 1v-1v1q1 -1 4 -1l4 1h-1h4l6 1l3 1h-1l1 1l4 1q6 2 9 6h1l1 2q0 3 6 9q1 1 18 21q2 2 28 39v0v-2l5 -5q0 -1 -5 -26l-1 -4q3 3 5 3h1l-1 1l1 1h1v1l10 7v0h-1q0 1 -1 1l-1 -1v1q8 5 15 10q26 10 38 11q19 -2 25 -6q12 -7 12 -14v-2
q-2 -13 -6 -17l-12 -11q-7 -3 -7 -5q10 -10 10 -12zM314 198v-4l-1 -1l-2 6zM29 228l-1 1h2v-1h-1zM16 101q-1 1 -4 1v3q0 1 1 1t1 -3l3 5l1 -1q2 -6 -2 -6zM151 243q-1 0 -4 7v1q1 0 4 -7v-1zM149 257q0 6 -18 6l18 -7v1zM71 191h-2v1h2v-1zM69 230l1 -2l-2 -3v1zM64 218
v-3h-1l1 3v0zM62 213h1q0 -3 -2 -3h-1q2 2 2 3zM60 207v0v-2h-1v1zM58 202v-4h-1v4h1zM36 141q-3 -1 -3 -6v-1q1 0 3 7zM32 132q0 -2 -1 -2v1q0 1 1 1zM31 115h2v-1q-1 0 -2 -1h-1q0 2 1 2zM86 132l2 2l4 3v1q-30 -18 -40 -21q1 -1 -3 -3q-1 0 -1 1q0 3 5 3v1h-2l-6 -2
t-5 -2l-1 -1h5v-1q-8 -2 -11 -3q-2 1 -5 1q-3 -1 -3 -5q1 -1 3 -1q10 5 21 9q0 2 18 8l3 2q3 1 7 3.5t9 4.5zM53 122q6 0 9 4q1 0 1 -1q-4 0 -9 -4h-1v1zM107 163q6 2 9 16v2q-8 6 -18 5h-4q-26 -10 -35 -11q-17 -33 -27 -53h1q12 3 36 17q5 0 21 11zM75 181h3v-1l-3 1v0z
M112 188h2l3 -2v-1q-2 0 -5 3zM117 218l2 1l4 2q4 0 11 13v4h1q0 -2 2 -2q3 3 3 6t-6 7h-1v-4h-1q0 9 -17 7q-4 0 -10 -1v2h-3q-8 -2 -8 -4l-14 -31q-2 -2 -4 -12q-3 -5 -3 -9v-1h2q7 3 14 5.5t10 4t4 1.5q11 7 14 11zM126 196q-1 1 -3 1v2h1l3 -2q0 -1 -1 -1zM134 186l3 -1
h-2v0l-1 -2v3zM135 180l2 1zM140 176q2 0 5 1l-5 -1v0zM145 174q-2 0 -5 -1l5 1h2v-1q-1 1 -2 1zM150 175q-1 0 -1 1h1q1 0 1 -1h-1zM164 190l2 1v-1h-2zM178 99v1q1 0 1 -1h-1zM189 186h-4l-2 -1h-1q-1 0 -1 1h8l1 2l1 -1q-1 0 -2 -1zM194 188l1 1l6 1q-1 0 -3.5 -0.5
t-3.5 -1.5zM195 197q-1 0 -1 -1h-2q0 2 11 5h1v-2zM208 212q1 2 2 5.5t1 4.5h-1l-15 -20v-1h2h1l4 1q6 2 6 10zM231 231v0l2 2zM222 135q2 0 3 6h-1l-3 -3q0 1 -1 1l-1 -1v-1q1 0 1 -1zM325 243q-1 1 -3 4v2q2 0 3 -6v0zM323 254q0 4 -15 5zM265 203h-3v1l3 -1v0zM262 234
l1 -1q-1 -2 -2 -3v1q1 1 1 3zM259 224v-2v2v0zM256 221v-2q1 1 0 2zM255 215v0v-2h-1q1 1 1 2zM254 211v-2v2v0zM237 165q-1 -5 -2 -5q0 3 2 5zM235 159q0 -1 -1 -1l1 1v0zM234 146h1q0 -1 -1 0q-2 -2 0 0zM276 159l3 3v1q-22 -14 -29 -16l-4 -2q-1 0 -1 1q0 2 5 2h-1l-9 -4
h3v-1q-1 0 -4 -1l-3 -1q-1 1 -5 1q-2 -2 -2 -4q1 -1 2 -1q5 3 16 7q0 1 14 6q4 4 15 9zM251 150q2 0 6 4q1 0 1 -1l-2 -1q-1 -1 -2 -1.5t-3 -0.5v0zM291 181q4 3 9 11v2q-4 3 -14 3h-3q-21 -7 -27 -7q-20 -40 -20 -41q5 0 27 13q5 4 15 10zM267 195h2h-2v0zM295 201h2
q2 -2 2 -3q-1 0 -4 3zM299 224h1l2 1q2 0 9 10v3h2q0 -1 1 -1q2 4 2 5q-3 3 -5 4h-1v-2h-1q0 7 -12 6q-5 0 -9 -1v1h-1q-6 -2 -6 -4l-11 -23q-1 0 -3 -9q-2 -4 -2 -6v-1h2q19 8 21 8q10 8 11 9zM304 208q1 0 2 -1q1 0 1 1l-2 1h-1v-1zM128 116l-2 -1q0 -1 1 -1q1 1 1 2v0z
M125 124v0l1 1q-2 0 -1 -1zM151 174v0v0zM150 187h1v1l-1 -1v0zM417 148h-2v-1l15 1v1zM431 150v0v0zM495 158l2 -1v1h-2zM493 158q-12 -2 -15 -2v-1h1h1h1q12 2 12 3v0zM425 175l-3 -3q0 -2 2 1zM411 182v0h-1h1v0zM441 151v0v0zM502 165v0q-1 -1 -4 -1h-4l1 -1l7 2
q1 -1 2 2q1 1 1 2q-2 -4 -3 -4q-20 -4 -32 -4l-1 -1h-1h-4h6h4v0v0h3v-1h-1q0 -1 -1 -1q-1 -1 -10 -2v0q-4 -1 -6 -1h-4l-1 -1l-3 -1l-8 -2h-1q-1 0 -1 2h1q1 1 2 1h1q1 1 3 1q0 1 -1 1q-1 -1 -2 -1v1h2h-8l-1 -1h-1h-8l-3 -1h-13q-1 -1 -3 -1q-1 1 -4 1l1 3v1q0 1 2 3h-2
h-2q0 -1 -2 -3h-1q1 3 3 7q2 0 2 -2h2q1 0 1 1l-1 6q4 8 8 20q2 2 2 7q-1 0 -1 1l4 9q9 19 24 61q1 -1 1 -2h1l2 4h-1l-1 -1v1l-3 -1l-9 -1q-1 0 -1 -1h4q0 -1 -1 -2h-4q-1 0 -5 -2h-3l-1 -1v1q-1 -1 -3 -1v-1l8 1v-1q-6 0 -31 -4h-2q-10 -2 -11.5 -3t-5.5 -1q-3 0 -8 -11
h-1q1 2 1 3q-3 0 -13 -23l2 -1l2 1h1h5.5h7.5t12 0.5t15 0.5q0 -1 7 -1q0 -1 -1 -1h-4v-1h5v-1l-8 -1l-3 -1v-2q4 0 4 -2q0 -1 3 -1v-1q-7 -3 -14 -3l-11 -1l-3 -1h-4q-7 -3 -13 -3h-3l-4 -1h-2q-2 -1 -6 -11q-12 -23 -12 -29h3l7 1h8q1 0 4 0.5t5 0.5h1q0 1 2 1h3l1 1l29 1
v-1l-3 -1q0 1 -1 1q0 -3 -19 -5v-1h3l1 1l3 -1l1 1h1l1 1h10q1 0 1 0.5t1 0.5q1 -1 5 -1q2 1 4 1v-1q-2 0 -2 -3l-6 -1h-2l-7 -2q0 -3 -5 -3l-14 -2h-1l-1 -1h-1h-1l-1 -1q-9 -1 -22 -2.5t-16 -1.5q-3 -3 -10 -23h-1l-1 1q6 18 7 18l-2 2q0 -3 -3 -8h-1q1 3 1 8l-1 -1
q-10 0 -10 2v2l1 2v1q-3 0 -3 1q2 5 7 6q0 1 2.5 6.5l7.5 16.5t10 23l21 44v3l-1 1l-1 -1h-1q0 1 6 4q2 4 6 5v3h-4l-2 -1l-1 1l9 4q2 1 4 1h2l18 3h1l8 2h2l1 1h1l-11 -1q1 0 1 0.5t1 0.5h5l3 1h1l1 1h5q4 0 43 3v-1l1 1h7v-1h-2l-1 -1h-1l-1 -1h-1l-3 -1l1 -2h5q0 -1 1 -2
v-6l2 2l1 -2l-1 -4h-2l-1 3q-2 -6 -2 -7h1v2h1l-2 -9q-2 -8 -7 -21q-4 -13 -10 -25q-2 -6 -3 -7q0 -1 -2 -5v-2h1q0 -1 -1 -1h-1q0 -3 -4 -11v-1h1q-2 0 -3 -1l2 -1v-1h-2v1l-2 -3v-3v-1h1v-1q0 -1 -1 -1v1q-2 0 -2 -4q1 -1 4 -1h4l7 1h4h1v0q1 0 3 0.5l2 0.5l3 1h4h1
q4 1 11 2l10 1v0l1 1h4h2.5t2.5 0.5t4.5 1t7.5 1.5v-1q-2 0 -2 -2h-1h-1q-6 -1 -11 -1h-1l-1 -1l-10 -1v-1q3 1 6 1h5v-1q-1 0 -3 -1h-1h-2l1 -1h1q3 1 9 2h-1h-1h-1h-1v1h1h2l1 1l1 1h2q0 1 4 1h2q1 0 1 -1h3q2 1 6 1v-1q0 -1 -1 -1zM317 162h-2q0 2 3 9h1q0 -5 -2 -9z
M319 171q0 1 1 2q0 -2 -1 -2zM342 153l-3 -2zM339 153q0 -1 -3 -3h-3h-1v1zM363 262h-2v1q0 2 1 2h1h1q0 -3 -1 -3zM390 268v0l-1 -1q0 1 1 1zM383 266h-3q2 0 3.5 0.5t2.5 0.5q0 -1 1 0v-1h-1h-2h-1zM386 256l4 1zM391 259l3 1v-1h-3zM391 267v1h6v-1q-3 1 -6 0zM394 256h3
q0 1 -1 1h-2v-1zM406 274l-3 -1h-5q2 0 5 1h3zM404 261l-3 -1zM410 259q-2 1 -3 1l-3 -1h-3l-1 1h3l8 1h4v-1q-1 0 -2.5 -0.5t-2.5 -0.5zM448 269q0 -3 -3 -9l2 -1q4 3 6 13q-1 0 -2.5 -1t-2.5 -2zM442 258l-1 -2v1q1 0 1 1zM437 247q1 5 4 8q0 -6 -4 -8l1 -2q-1 -1 -1 -3v3
v2zM436 242q0 -2 -1 -4v1q0 3 1 3zM405 154v0v0zM449 153h-3v0h5q-2 2 -2 0zM446 154zM447 161h-3h3l2 1q2 0 3 1h1q1 0 1 -1zM458 162h-4h4v0zM459 162l1 1zM462 163l1 1q1 0 1 -1h-2zM466 163l2 1zM469 163h1v-1zM506 167v0v0zM507 169v0v0v0l-1 -2l1 2v0v0zM510 166v0
l2 -1z" />
    <glyph glyph-name="uniF152" unicode="&#xf152;" horiz-adv-x="363" 
d="M181 400l182 -105v-209l-182 -104l-181 104v209zM271 138v103l-90 52l-89 -52v-103l89 -53z" />
    <glyph glyph-name="uniF153" unicode="&#xf153;" horiz-adv-x="341" 
d="M-8 448zM0 448h101l70 -118l70 118h100q0 -2 -1 -3l-119 -201l118 -198q1 -2 0 -5t-5 -3h-90q-2 0 -4 3l-69 117l-70 -117q-1 -3 -4 -3h-90q-3 0 -4 3t0 5l117 198l-119 201q-1 1 -1 3z" />
    <glyph glyph-name="uniF154" unicode="&#xf154;" horiz-adv-x="351" 
d="M234 -31q38 24 45 60q9 46 -29 88q-16 17 -52 41q-29 20 -37 29q-17 17 -14 38q-18 -18 -19 -38q-3 -24 12 -43q10 -12 12 -16q11 -13 11 -27q0 -13 -7.5 -21.5t-18.5 -9.5q-12 -1 -21 7.5t-10 20.5q0 2 0.5 8t0.5 10q-41 -32 -42 -77q-1 -42 42 -74h-6q-56 20 -83 68
t-14 107q13 61 66 121q12 14 35.5 37t31.5 32q25 28 32 53q5 18 -1 34q4 4 6 -1q43 -41 40 -94q-1 -9 -5 -25l-5 -20q-5 -20 -1 -36q5 -20 22 -24q14 -4 26.5 5t9.5 25q31 -17 51 -40q44 -50 38.5 -110.5t-57.5 -101.5q-28 -22 -55 -31q0 1 -2 2t-2 3z" />
    </font>
</defs>
</svg>
